<svg xmlns="http://www.w3.org/2000/svg">
<defs>
<font id="DanburyCapsPERSONALUSE-Regular" horiz-adv-x="0" >
  <font-face 
    font-family="Danbury Caps PERSONAL USE"
    font-weight="400"
    font-style="italic"
    font-variant="small-caps"
    font-stretch="normal"
    units-per-em="2048"
    panose-1="0 0 0 0 0 0 0 0 0 0"
    ascent="1638"
    descent="-410"
    cap-height="1896"
    bbox="-518 -960.391 6486 3307.59"
    underline-thickness="102"
    underline-position="-358"
    slope="-10"
    unicode-range="U+0020-FF5D"
  />
<missing-glyph horiz-adv-x="6334" 
d="M3463 1579q-102 0 -117 98q-6 29 -6 84q0 15 -0.5 50.5t-0.5 55.5t2 47.5t7 47.5q16 78 109 82q42 0 77 -16t46 -50q8 -20 11.5 -47.5t3.5 -49t-1.5 -55t-1.5 -48.5q0 -76 -6 -105q-19 -94 -123 -94zM1421 41l9 575h92l69 -360l66 360h98l2 -575h-80l-10 240l-41 -240
h-67l-48 233l-4 -233h-86zM1833 41v575h74l96 -274v274h92v-575h-72l-100 283v-283h-90zM2132 -401q0 34 19.5 55t56.5 14q22 -1 33 -14t12.5 -25.5t1.5 -36.5h-29q0 34 -2 41q-6 15 -24 16t-27 -11q-4 -6 -6 -18.5t-2.5 -21t0 -24.5t0.5 -18t-0.5 -13.5t0 -18.5t1.5 -18
t3.5 -19.5t7.5 -14.5q6 -12 23.5 -10.5t23.5 16.5q2 7 2 45h29q0 -25 -2.5 -41.5t-15.5 -31.5t-37 -15q-17 0 -30 5.5t-20.5 17.5t-11.5 23.5t-5.5 29.5t-1.5 30t0.5 31.5t0.5 26.5zM2159 41v104h98v-104h-98zM2284 -442q0 25 0.5 36.5t3.5 30.5t10 27t20 13.5t33 2.5
q23 -1 37 -10t19.5 -27.5t6.5 -31.5t1 -36v-7v-27.5t-1.5 -26t-6 -27t-11 -20t-19 -16t-28.5 -4.5q-19 0 -32 6.5t-19.5 14t-10 24.5t-4 24.5t0 29t0.5 24.5zM2288 1583v459h98q85 0 111 -51q24 -40 18.5 -92t-41.5 -78q-6 -6 -13.5 -11t-18 -8t-17 -4.5t-20.5 -2.5t-18 -1
h-20h-18v-211h-61zM2292 244l92 4q0 -70 20 -103q16 -27 37 -18q25 6 25 47q0 21 -10.5 43.5t-22 36t-31.5 35t-26 28.5q-8 11 -29 30t-25 30q-37 60 -22 135q2 62 60 95t118 5q76 -37 76 -184l-88 -4q-2 9 -4.5 41t-9 49.5t-23.5 20.5q-30 1 -39.5 -26.5t-1.5 -47.5

<glyph glyph-name="uni338E338E338E338E338E338E338E338E338E338E.liga" unicode="&#x30;&#x30;&#x30;&#x30;&#x30;&#x30;&#x30;&#x30;&#x30;&#x30;" horiz-adv-x="6334" 
d="M3463 1579q-102 0 -117 98q-6 29 -6 84q0 15 -0.5 50.5t-0.5 55.5t2 47.5t7 47.5q16 78 109 82q42 0 77 -16t46 -50q8 -20 11.5 -47.5t3.5 -49t-1.5 -55t-1.5 -48.5q0 -76 -6 -105q-19 -94 -123 -94zM1421 41l9 575h92l69 -360l66 360h98l2 -575h-80l-10 240l-41 -240
h-67l-48 233l-4 -233h-86zM1833 41v575h74l96 -274v274h92v-575h-72l-100 283v-283h-90zM2132 -401q0 34 19.5 55t56.5 14q22 -1 33 -14t12.5 -25.5t1.5 -36.5h-29q0 34 -2 41q-6 15 -24 16t-27 -11q-4 -6 -6 -18.5t-2.5 -21t0 -24.5t0.5 -18t-0.5 -13.5t0 -18.5t1.5 -18
t3.5 -19.5t7.5 -14.5q6 -12 23.5 -10.5t23.5 16.5q2 7 2 45h29q0 -25 -2.5 -41.5t-15.5 -31.5t-37 -15q-17 0 -30 5.5t-20.5 17.5t-11.5 23.5t-5.5 29.5t-1.5 30t0.5 31.5t0.5 26.5zM2159 41v104h98v-104h-98zM2284 -442q0 25 0.5 36.5t3.5 30.5t10 27t20 13.5t33 2.5
q23 -1 37 -10t19.5 -27.5t6.5 -31.5t1 -36v-7v-27.5t-1.5 -26t-6 -27t-11 -20t-19 -16t-28.5 -4.5q-19 0 -32 6.5t-19.5 14t-10 24.5t-4 24.5t0 29t0.5 24.5zM2288 1583v459h98q85 0 111 -51q24 -40 18.5 -92t-41.5 -78q-6 -6 -13.5 -11t-18 -8t-17 -4.5t-20.5 -2.5t-18 -1
h-20h-18v-211h-61zM2292 244l92 4q0 -70 20 -103q16 -27 37 -18q25 6 25 47q0 21 -10.5 43.5t-22 36t-31.5 35t-26 28.5q-8 11 -29 30t-25 30q-37 60 -22 135q2 62 60 95t118 5q76 -37 76 -184l-88 -4q-2 9 -4.5 41t-9 49.5t-23.5 20.5q-30 1 -39.5 -26.5t-1.5 -47.5
q4 -12 11.5 -22.5t12.5 -16t16 -15.5t15 -14l45 -51q80 -80 68 -192q-2 -39 -28.5 -72t-71.5 -43q-43 -6 -82.5 11.5t-57.5 55.5q-24 65 -24 142zM2292 1233v287h59v-308q0 -29 1 -42.5t10 -35t28 -32.5q46 -13 65 19.5t19 82.5v146v170h63v-209q0 -10 1 -43t1 -51.5t-4 -48
t-11.5 -47t-24 -34.5t-39.5 -24q-39 -21 -89 -3.5t-67 62.5q-12 31 -12 111zM2312 -424q0 -4 -0.5 -20t-0.5 -28t1 -26.5t5.5 -24t11.5 -12.5q48 -25 51 50v30q0 3 0.5 18.5t0 25t-1.5 22.5t-5 21t-11 10q-24 11 -37.5 -0.5t-13.5 -34.5v-31zM2349 1843q51 0 68 4
q39 9 39 64q0 16 -0.5 25t-4 22t-12 21t-22.5 12q-11 4 -22 4.5t-25 -1t-21 -1.5v-150zM2372 -270v231h88v-22h-54v-80h43v-21h-43v-108h-34zM2443 -563v231h37l43 -184l37 184h33l2 -231h-23v170l-37 -170h-26l-37 170v-170h-29zM2480 -147q0 22 0.5 33.5t4 29.5t10.5 27
t21 16.5t34 7.5q12 -2 21.5 -7t15.5 -9.5t10.5 -15.5t7 -16t3.5 -19.5t1 -18v-20v-17.5q0 -17 -0.5 -26.5t-2 -25.5t-5.5 -25.5t-10.5 -19.5t-18 -14.5t-26.5 -4.5q-19 0 -32.5 7.5t-20 16.5t-10 28t-3.5 29v33v11zM2513 -141q0 -2 -1.5 -22.5t-1.5 -35t6 -30.5t19 -21
q14 -4 23.5 3t12.5 23.5t4 28t1 31.5q0 3 1 23t1 33t-4.5 27.5t-13.5 17.5q-18 12 -32.5 -2.5t-14.5 -38.5v-37zM2560 1583v459h174v-49h-113v-150h95v-49h-95v-168h117v-43h-178zM2587 1186l63 18q0 -3 2 -18t3 -20t3.5 -15.5t6 -17t8.5 -11.5q14 -16 35.5 -18t33.5 12
q20 18 20 43.5t-14 46.5q-3 4 -12 16.5t-18 21t-21 13.5q-6 6 -28.5 24.5t-37.5 33.5t-24 31q-18 29 -19 64.5t18 66.5t54 43q57 10 111 -19q39 -29 39 -98l-49 -19q-4 75 -49 82q-22 7 -38.5 -2.5t-19.5 -29.5q-3 -9 -3.5 -18.5t1.5 -17t7 -15.5t10 -14t13 -14t14.5 -13
t15.5 -12.5t14 -12.5q4 -3 23 -19.5t25 -23t18 -21t17 -28.5t7 -31q12 -53 -18.5 -95t-85.5 -42t-87.5 36t-37.5 93zM2601 330q0 17 -1.5 53.5t-1 63t4.5 49.5q14 89 84 120q80 19 127 -12q18 -11 31 -28.5t19 -33t9 -40t3.5 -37.5t0.5 -39v-12h-94q0 74 -4.5 93t-23.5 28
q-31 4 -42.5 -18t-11.5 -60v-209q0 -5 -0.5 -19t-1 -24t1 -24.5t5 -24t10.5 -18t18 -11.5q11 -2 19.5 -3.5t15 5.5t10.5 12.5t6.5 18t4 21t2 22t0.5 21.5t-0.5 18.5t-0.5 13.5h-57v86h148v-301h-74l-4 18q-27 -24 -70 -25.5t-72 19.5q-50 22 -59 117q-4 25 -4.5 50.5t1 59.5
t1.5 50zM2636 -563v231h35l41 -184l38 184h31l4 -231h-20l-4 170l-37 -170h-27l-31 170l-6 -170h-24zM2644 -270v231q7 0 21 0.5t23 1t21 -1.5t21 -6q27 -14 29 -57t-29 -54l35 -114h-35l-33 108h-24v-108h-29zM2666 709v241q4 0 20.5 0.5t25.5 0t22.5 -2.5t23 -8t15.5 -16
q7 -20 5 -48.5t-13 -39.5q-6 -4 -11.5 -7t-9.5 -4.5t-11.5 -2.5t-10.5 -1h-12.5h-12.5v-112h-31zM2673 -141q27 0 42 9t15 34q0 24 -13.5 30.5t-43.5 6.5v-80zM2697 842q29 0 33 4q18 10 18 47q0 19 -7 27.5t-15.5 10t-28.5 1.5v-90zM2785 1583v459q8 0 36 0.5t41.5 0
t35.5 -2t38.5 -6t31.5 -11.5q50 -30 51.5 -109.5t-51.5 -101.5l55 -229h-55l-66 213h-47v-213h-70zM2810 709v241h24v-215h62v-26h-86zM2824 -563v231h92v-22h-57v-70h47v-25h-47v-94h57v-20h-92zM2839 -61v22h122v-22h-45v-209h-34v209h-43zM2855 1843q40 0 63 4
q44 20 37 78q0 52 -37 62q-10 5 -20.5 6.5t-25.5 0.5t-17 -1v-150zM2873 1063v457h176v-54h-116v-149h92v-45h-92v-170h116v-39h-176zM2902 -31l154 721h90l-164 -721h-80zM2918 709v241h91v-18h-60v-86h49v-25h-49v-86h60v-26h-91zM2939 -563v231q11 0 31.5 2t34 1t24.5 -7
q26 -18 26 -58t-30 -50l35 -119h-31l-27 114h-26v-114h-37zM2976 -424q18 0 26.5 1t15.5 8t7 22q0 24 -12 31.5t-37 7.5v-70zM2976 -270v231h28v-102h66v102h33v-231h-33v108h-66v-108h-28zM3023 709l51 241h37l45 -241h-33l-12 65h-51l-6 -65h-31zM3062 793h49l-23 114z
M3062 1710l63 19q3 -60 25 -82q15 -17 38 -19t38 12q17 14 16 40.5t-16 48.5q-3 3 -11.5 13t-18.5 19.5t-22 18.5q-6 6 -39.5 36t-48.5 48q-19 32 -20.5 69t18.5 66.5t58 36.5q21 9 53 5.5t55 -18.5q32 -20 41 -96l-51 -16q-1 3 -4 16t-4.5 18.5t-5.5 16.5t-8.5 16.5
t-11.5 11.5t-15 9q-23 0 -41.5 -11t-22.5 -30q-3 -25 10.5 -48.5t28 -36t39.5 -30.5q8 -8 27 -28t28.5 -31t21 -29.5t15.5 -36.5q11 -55 -19.5 -97t-86.5 -42q-58 0 -92 36.5t-37 94.5zM3088 -401q0 34 19 55t55 14q29 -1 38 -21.5t9 -54.5h-33q0 2 1.5 10.5t1 16.5t-4.5 14
q-3 15 -20 16t-27 -11q-7 -8 -8.5 -22.5t0.5 -35.5t2 -24q0 -2 -2 -23t-0.5 -36.5t8.5 -24.5q10 -12 27 -10.5t20 16.5q4 6 4.5 13.5t-1 17.5t-1.5 14h33q0 -25 -3 -41.5t-16.5 -31.5t-39.5 -15q-24 0 -38.5 10.5t-19.5 32t-6 37.5t0.5 46t1.5 38zM3135 -270v231h91v-22h-56
v-80h45v-21h-45v-92h56v-16h-91zM3166 37v575h92q86 0 124 -43.5t38 -136.5v-215q0 -94 -35.5 -137t-113.5 -43h-105zM3170 776l35 12q0 -47 14 -53q39 -3 39 29q0 13 -9.5 26.5t-24.5 27.5t-19 20q-26 21 -32 48.5t18 51.5q25 21 63 8q33 -14 33 -59l-29 -4q-14 49 -36 47
q-14 -1 -17 -21q-9 -31 27 -63q5 -4 17.5 -12.5t18.5 -13.5t12 -14t7 -18q9 -32 -6.5 -55.5t-48.5 -23.5q-25 0 -42 19.5t-20 47.5zM3219 1245q0 15 -0.5 49t-0.5 53.5t2 46.5t6 48q26 78 112 78q100 0 119 -66q12 -26 14.5 -59t-1 -79.5t-3.5 -58.5t1.5 -36.5t0.5 -41
t-6 -32.5q-6 -44 -36.5 -67t-78.5 -23q-49 0 -83.5 25t-38.5 69q-7 36 -7 94zM3244 -563v231h33v-231h-33zM3258 127h33q27 15 27 33q4 27 4 84v155q0 57 -4 82q0 10 -8.5 21.5t-18.5 11.5h-33v-387zM3287 1204q0 -63 12 -81q7 -9 15 -13q34 -13 57 0q33 16 37 57
q2 6 2 15.5t-1 20.5t-1 14v165v11.5v12t-0.5 10.5t-1.5 11t-3 9.5t-5 9.5t-7 8q-40 24 -57 12q-19 0 -29 -8t-18 -28q-4 -20 -4 -45t2 -56.5t2 -46.5v-78zM3299 -563l49 231h35l54 -231h-31l-10 61h-50l-12 -61h-35zM3314 709v241h94v-18h-60v-86h48v-25h-48v-86h64v-26h-98
zM3326 -270v231h88v-22h-66v-80h48v-21h-48v-108h-22zM3348 -485h43l-20 112zM3408 1722v-20.5t1.5 -19.5t5 -22t10.5 -16t18 -14q9 -4 25.5 -4t25.5 4q33 18 33 62v209q0 56 -21 77q-18 25 -51 15q-17 -2 -27 -12t-16 -33q-7 -17 -8 -41t1.5 -57t2.5 -46v-82zM3430 37
l107 575h90l98 -575h-96l-18 137h-62l-20 -137h-99zM3437 -215q-2 6 -2 15.5t1 21t1 16.5v123h24v-102q0 -2 -1 -22t0 -31.5t3.5 -27.5t9.5 -24t19 -8q13 0 21 8t11 24.5t3.5 27t0 31.5t-0.5 22v102h28v-104v-16.5v-19t-1 -18.5t-2.5 -19.5t-4.5 -17t-7.5 -16t-11.5 -11.5
t-16 -9q-65 -18 -75 55zM3457 -563v231h31v-211h61v-20h-92zM3488 950h35l32 -174l37 174h29l-49 -241h-33zM3537 1063v457h43l129 -308v308h57v-457h-45l-135 309v-309h-49zM3564 256h30l-16 117zM3592 -270v231h35v-215h53v-16h-88zM3629 -332h29l35 -170l36 170h29
l-53 -231h-25zM3645 709v241h35v-241h-35zM3658 1583v459h37l129 -307v307h57v-459h-43l-129 307v-307h-51zM3705 -270v231h33v-215h57v-16h-90zM3711 776l31 12q0 -16 6.5 -32.5t17.5 -20.5q13 -2 21 5.5t8 23.5q3 13 -7 28.5t-18 22.5t-28 23q-15 14 -24 30.5t-7.5 36
t18.5 33.5q36 22 64 8q27 -14 31 -59l-29 -4q-3 29 -12.5 40t-20 5.5t-16.5 -19.5q-2 -10 -3 -16t4.5 -14t9 -12t10.5 -11l10 -10l6 -4q6 -5 8 -6.5t7.5 -6t7.5 -7l6 -7.5t6 -8.5t4 -8.5t2 -10q9 -31 -6 -55t-44 -24q-55 0 -63 67zM3738 37v575h69l99 -274v274h92v-575h-74
l-98 282v-282h-88zM3783 -563v231h94v-22h-62v-70h52v-25h-52v-94h62v-20h-94zM3836 1063v457h61v-418h111v-39h-172zM3854 709v241h35v-241h-35zM3877 -270l43 231h37l51 -231h-35l-8 57h-45l-17 -57h-26zM3901 -563v231q8 0 28.5 2t35.5 1t27 -7q26 -17 23.5 -58.5
t-32.5 -51.5l37 -117h-33l-30 114h-23v-114h-33zM3910 932v18h110v-18h-39v-223h-26v223h-45zM3920 -190h39l-21 106zM3926 1583l98 459h64l96 -459h-59l-23 109h-94l-25 -109h-57zM3934 -424q19 0 27.5 1t15 8t6.5 22q0 24 -11.5 31.5t-37.5 7.5v-70zM4018 1741h76l-35 207
zM4030 -270v231h21l65 -154v154h31v-231h-22l-62 157v-157h-33zM4030 1520h58l67 -224l70 224h64q-9 -31 -31 -96t-33 -101l-31 -90q-4 -9 -5 -20t0 -25t1 -17v-108h-63v90v70q-17 58 -33 88zM4045 -496l31 7q0 -38 18 -46q16 -7 27.5 1.5t11.5 23.5q0 30 -57 68
q-24 24 -29.5 53.5t18.5 46.5q39 27 64 8q26 -9 26 -51l-22 -14q-1 3 -2 10.5t-2 11.5t-3 9.5t-5 8.5t-7 5q-19 10 -34 -13q-3 -6 -3 -12.5t1.5 -11t6 -9.5t8 -8t10 -8t9.5 -8q3 -4 16.5 -17.5t20 -24.5t6.5 -26q11 -28 -2 -50.5t-43 -22.5q-61 0 -65 69zM4047 37v575h164
q41 0 74.5 -38t33.5 -111q0 -98 -49 -125q55 -44 55 -150q0 -72 -33.5 -111.5t-72.5 -39.5h-172zM4139 123h45q24 0 34 28t7 66q-8 70 -49 70h-37v-164zM4139 369h37q43 0 43 75q0 86 -45 86h-35v-161zM4184 -270v231q2 0 22 0.5t29.5 0t25.5 -4.5t28 -12q10 -8 13 -23
t1 -44.5t-2 -33.5q0 -6 1 -21.5t0.5 -24.5t-2.5 -21t-8 -20t-16 -13q-8 -7 -21.5 -10.5t-22.5 -4t-27.5 0t-20.5 0.5zM4190 -563v231h29v-231h-29zM4217 -254q16 0 23.5 1.5t16 10.5t13.5 27v119q-1 24 -13.5 29.5t-39.5 5.5v-193zM4231 1583v459h66v-416h114v-43h-180z
M4254 -442q0 25 0.5 36.5t4 30.5t11 27t22 13.5t35.5 2.5q12 0 21.5 -3.5t15.5 -8t10.5 -13.5t6.5 -14.5t3 -18t1 -18v-19.5v-17v-8q0 -26 -1 -40t-6.5 -34t-19.5 -29.5t-37 -9.5q-12 0 -22 2.5t-16.5 8.5t-11.5 10.5t-8 15t-5 15.5t-3 18.5t-1 17.5v19v16zM4295 -424
q0 -4 -4 -34.5t-2 -51.5t14 -25q46 -25 50 50q1 9 1 30q0 5 1 18.5t1 24.5t-1 23.5t-4.5 20.5t-10.5 10q-45 19 -45 -35v-31zM4321 1063v61h64v-61h-64zM4321 1520h64l-23 -363h-20zM4372 244v368h99v-356q0 -85 6 -113q17 -26 45 -20q21 11 25 21q2 6 2 16q6 27 6 84v368
h92v-368q0 -93 -13 -129q-14 -41 -46 -60q-52 -33 -132 -14q-36 14 -55.5 47t-21.5 72q-7 34 -7 84zM4420 -563v231h18l72 -155v155h24v-231h-22l-74 162v-162h-18zM4696 37v575h168q38 0 71 -38t33 -111q0 -45 -17 -89.5t-52 -68.5l63 -268h-94l-51 250h-27v-250h-94z
M4790 369h51q16 9 22.5 48.5t-5 76t-37.5 36.5h-31v-161zM4993 612h98l39 -231l41 231h101l-97 -344v-231h-96v248z" />
    <glyph glyph-name=".notdef" horiz-adv-x="6334" 
d="M3463 1579q-102 0 -117 98q-6 29 -6 84q0 15 -0.5 50.5t-0.5 55.5t2 47.5t7 47.5q16 78 109 82q42 0 77 -16t46 -50q8 -20 11.5 -47.5t3.5 -49t-1.5 -55t-1.5 -48.5q0 -76 -6 -105q-19 -94 -123 -94zM1421 41l9 575h92l69 -360l66 360h98l2 -575h-80l-10 240l-41 -240
h-67l-48 233l-4 -233h-86zM1833 41v575h74l96 -274v274h92v-575h-72l-100 283v-283h-90zM2132 -401q0 34 19.5 55t56.5 14q22 -1 33 -14t12.5 -25.5t1.5 -36.5h-29q0 34 -2 41q-6 15 -24 16t-27 -11q-4 -6 -6 -18.5t-2.5 -21t0 -24.5t0.5 -18t-0.5 -13.5t0 -18.5t1.5 -18
t3.5 -19.5t7.5 -14.5q6 -12 23.5 -10.5t23.5 16.5q2 7 2 45h29q0 -25 -2.5 -41.5t-15.5 -31.5t-37 -15q-17 0 -30 5.5t-20.5 17.5t-11.5 23.5t-5.5 29.5t-1.5 30t0.5 31.5t0.5 26.5zM2159 41v104h98v-104h-98zM2284 -442q0 25 0.5 36.5t3.5 30.5t10 27t20 13.5t33 2.5
q23 -1 37 -10t19.5 -27.5t6.5 -31.5t1 -36v-7v-27.5t-1.5 -26t-6 -27t-11 -20t-19 -16t-28.5 -4.5q-19 0 -32 6.5t-19.5 14t-10 24.5t-4 24.5t0 29t0.5 24.5zM2288 1583v459h98q85 0 111 -51q24 -40 18.5 -92t-41.5 -78q-6 -6 -13.5 -11t-18 -8t-17 -4.5t-20.5 -2.5t-18 -1
h-20h-18v-211h-61zM2292 244l92 4q0 -70 20 -103q16 -27 37 -18q25 6 25 47q0 21 -10.5 43.5t-22 36t-31.5 35t-26 28.5q-8 11 -29 30t-25 30q-37 60 -22 135q2 62 60 95t118 5q76 -37 76 -184l-88 -4q-2 9 -4.5 41t-9 49.5t-23.5 20.5q-30 1 -39.5 -26.5t-1.5 -47.5
q4 -12 11.5 -22.5t12.5 -16t16 -15.5t15 -14l45 -51q80 -80 68 -192q-2 -39 -28.5 -72t-71.5 -43q-43 -6 -82.5 11.5t-57.5 55.5q-24 65 -24 142zM2292 1233v287h59v-308q0 -29 1 -42.5t10 -35t28 -32.5q46 -13 65 19.5t19 82.5v146v170h63v-209q0 -10 1 -43t1 -51.5t-4 -48
t-11.5 -47t-24 -34.5t-39.5 -24q-39 -21 -89 -3.5t-67 62.5q-12 31 -12 111zM2312 -424q0 -4 -0.5 -20t-0.5 -28t1 -26.5t5.5 -24t11.5 -12.5q48 -25 51 50v30q0 3 0.5 18.5t0 25t-1.5 22.5t-5 21t-11 10q-24 11 -37.5 -0.5t-13.5 -34.5v-31zM2349 1843q51 0 68 4
q39 9 39 64q0 16 -0.5 25t-4 22t-12 21t-22.5 12q-11 4 -22 4.5t-25 -1t-21 -1.5v-150zM2372 -270v231h88v-22h-54v-80h43v-21h-43v-108h-34zM2443 -563v231h37l43 -184l37 184h33l2 -231h-23v170l-37 -170h-26l-37 170v-170h-29zM2480 -147q0 22 0.5 33.5t4 29.5t10.5 27
t21 16.5t34 7.5q12 -2 21.5 -7t15.5 -9.5t10.5 -15.5t7 -16t3.5 -19.5t1 -18v-20v-17.5q0 -17 -0.5 -26.5t-2 -25.5t-5.5 -25.5t-10.5 -19.5t-18 -14.5t-26.5 -4.5q-19 0 -32.5 7.5t-20 16.5t-10 28t-3.5 29v33v11zM2513 -141q0 -2 -1.5 -22.5t-1.5 -35t6 -30.5t19 -21
q14 -4 23.5 3t12.5 23.5t4 28t1 31.5q0 3 1 23t1 33t-4.5 27.5t-13.5 17.5q-18 12 -32.5 -2.5t-14.5 -38.5v-37zM2560 1583v459h174v-49h-113v-150h95v-49h-95v-168h117v-43h-178zM2587 1186l63 18q0 -3 2 -18t3 -20t3.5 -15.5t6 -17t8.5 -11.5q14 -16 35.5 -18t33.5 12
q20 18 20 43.5t-14 46.5q-3 4 -12 16.5t-18 21t-21 13.5q-6 6 -28.5 24.5t-37.5 33.5t-24 31q-18 29 -19 64.5t18 66.5t54 43q57 10 111 -19q39 -29 39 -98l-49 -19q-4 75 -49 82q-22 7 -38.5 -2.5t-19.5 -29.5q-3 -9 -3.5 -18.5t1.5 -17t7 -15.5t10 -14t13 -14t14.5 -13
t15.5 -12.5t14 -12.5q4 -3 23 -19.5t25 -23t18 -21t17 -28.5t7 -31q12 -53 -18.5 -95t-85.5 -42t-87.5 36t-37.5 93zM2601 330q0 17 -1.5 53.5t-1 63t4.5 49.5q14 89 84 120q80 19 127 -12q18 -11 31 -28.5t19 -33t9 -40t3.5 -37.5t0.5 -39v-12h-94q0 74 -4.5 93t-23.5 28
q-31 4 -42.5 -18t-11.5 -60v-209q0 -5 -0.5 -19t-1 -24t1 -24.5t5 -24t10.5 -18t18 -11.5q11 -2 19.5 -3.5t15 5.5t10.5 12.5t6.5 18t4 21t2 22t0.5 21.5t-0.5 18.5t-0.5 13.5h-57v86h148v-301h-74l-4 18q-27 -24 -70 -25.5t-72 19.5q-50 22 -59 117q-4 25 -4.5 50.5t1 59.5
t1.5 50zM2636 -563v231h35l41 -184l38 184h31l4 -231h-20l-4 170l-37 -170h-27l-31 170l-6 -170h-24zM2644 -270v231q7 0 21 0.5t23 1t21 -1.5t21 -6q27 -14 29 -57t-29 -54l35 -114h-35l-33 108h-24v-108h-29zM2666 709v241q4 0 20.5 0.5t25.5 0t22.5 -2.5t23 -8t15.5 -16
q7 -20 5 -48.5t-13 -39.5q-6 -4 -11.5 -7t-9.5 -4.5t-11.5 -2.5t-10.5 -1h-12.5h-12.5v-112h-31zM2673 -141q27 0 42 9t15 34q0 24 -13.5 30.5t-43.5 6.5v-80zM2697 842q29 0 33 4q18 10 18 47q0 19 -7 27.5t-15.5 10t-28.5 1.5v-90zM2785 1583v459q8 0 36 0.5t41.5 0
t35.5 -2t38.5 -6t31.5 -11.5q50 -30 51.5 -109.5t-51.5 -101.5l55 -229h-55l-66 213h-47v-213h-70zM2810 709v241h24v-215h62v-26h-86zM2824 -563v231h92v-22h-57v-70h47v-25h-47v-94h57v-20h-92zM2839 -61v22h122v-22h-45v-209h-34v209h-43zM2855 1843q40 0 63 4
q44 20 37 78q0 52 -37 62q-10 5 -20.5 6.5t-25.5 0.5t-17 -1v-150zM2873 1063v457h176v-54h-116v-149h92v-45h-92v-170h116v-39h-176zM2902 -31l154 721h90l-164 -721h-80zM2918 709v241h91v-18h-60v-86h49v-25h-49v-86h60v-26h-91zM2939 -563v231q11 0 31.5 2t34 1t24.5 -7
q26 -18 26 -58t-30 -50l35 -119h-31l-27 114h-26v-114h-37zM2976 -424q18 0 26.5 1t15.5 8t7 22q0 24 -12 31.5t-37 7.5v-70zM2976 -270v231h28v-102h66v102h33v-231h-33v108h-66v-108h-28zM3023 709l51 241h37l45 -241h-33l-12 65h-51l-6 -65h-31zM3062 793h49l-23 114z
M3062 1710l63 19q3 -60 25 -82q15 -17 38 -19t38 12q17 14 16 40.5t-16 48.5q-3 3 -11.5 13t-18.5 19.5t-22 18.5q-6 6 -39.5 36t-48.5 48q-19 32 -20.5 69t18.5 66.5t58 36.5q21 9 53 5.5t55 -18.5q32 -20 41 -96l-51 -16q-1 3 -4 16t-4.5 18.5t-5.5 16.5t-8.5 16.5
t-11.5 11.5t-15 9q-23 0 -41.5 -11t-22.5 -30q-3 -25 10.5 -48.5t28 -36t39.5 -30.5q8 -8 27 -28t28.5 -31t21 -29.5t15.5 -36.5q11 -55 -19.5 -97t-86.5 -42q-58 0 -92 36.5t-37 94.5zM3088 -401q0 34 19 55t55 14q29 -1 38 -21.5t9 -54.5h-33q0 2 1.5 10.5t1 16.5t-4.5 14
q-3 15 -20 16t-27 -11q-7 -8 -8.5 -22.5t0.5 -35.5t2 -24q0 -2 -2 -23t-0.5 -36.5t8.5 -24.5q10 -12 27 -10.5t20 16.5q4 6 4.5 13.5t-1 17.5t-1.5 14h33q0 -25 -3 -41.5t-16.5 -31.5t-39.5 -15q-24 0 -38.5 10.5t-19.5 32t-6 37.5t0.5 46t1.5 38zM3135 -270v231h91v-22h-56
v-80h45v-21h-45v-92h56v-16h-91zM3166 37v575h92q86 0 124 -43.5t38 -136.5v-215q0 -94 -35.5 -137t-113.5 -43h-105zM3170 776l35 12q0 -47 14 -53q39 -3 39 29q0 13 -9.5 26.5t-24.5 27.5t-19 20q-26 21 -32 48.5t18 51.5q25 21 63 8q33 -14 33 -59l-29 -4q-14 49 -36 47
q-14 -1 -17 -21q-9 -31 27 -63q5 -4 17.5 -12.5t18.5 -13.5t12 -14t7 -18q9 -32 -6.5 -55.5t-48.5 -23.5q-25 0 -42 19.5t-20 47.5zM3219 1245q0 15 -0.5 49t-0.5 53.5t2 46.5t6 48q26 78 112 78q100 0 119 -66q12 -26 14.5 -59t-1 -79.5t-3.5 -58.5t1.5 -36.5t0.5 -41
t-6 -32.5q-6 -44 -36.5 -67t-78.5 -23q-49 0 -83.5 25t-38.5 69q-7 36 -7 94zM3244 -563v231h33v-231h-33zM3258 127h33q27 15 27 33q4 27 4 84v155q0 57 -4 82q0 10 -8.5 21.5t-18.5 11.5h-33v-387zM3287 1204q0 -63 12 -81q7 -9 15 -13q34 -13 57 0q33 16 37 57
q2 6 2 15.5t-1 20.5t-1 14v165v11.5v12t-0.5 10.5t-1.5 11t-3 9.5t-5 9.5t-7 8q-40 24 -57 12q-19 0 -29 -8t-18 -28q-4 -20 -4 -45t2 -56.5t2 -46.5v-78zM3299 -563l49 231h35l54 -231h-31l-10 61h-50l-12 -61h-35zM3314 709v241h94v-18h-60v-86h48v-25h-48v-86h64v-26h-98
zM3326 -270v231h88v-22h-66v-80h48v-21h-48v-108h-22zM3348 -485h43l-20 112zM3408 1722v-20.5t1.5 -19.5t5 -22t10.5 -16t18 -14q9 -4 25.5 -4t25.5 4q33 18 33 62v209q0 56 -21 77q-18 25 -51 15q-17 -2 -27 -12t-16 -33q-7 -17 -8 -41t1.5 -57t2.5 -46v-82zM3430 37
l107 575h90l98 -575h-96l-18 137h-62l-20 -137h-99zM3437 -215q-2 6 -2 15.5t1 21t1 16.5v123h24v-102q0 -2 -1 -22t0 -31.5t3.5 -27.5t9.5 -24t19 -8q13 0 21 8t11 24.5t3.5 27t0 31.5t-0.5 22v102h28v-104v-16.5v-19t-1 -18.5t-2.5 -19.5t-4.5 -17t-7.5 -16t-11.5 -11.5
t-16 -9q-65 -18 -75 55zM3457 -563v231h31v-211h61v-20h-92zM3488 950h35l32 -174l37 174h29l-49 -241h-33zM3537 1063v457h43l129 -308v308h57v-457h-45l-135 309v-309h-49zM3564 256h30l-16 117zM3592 -270v231h35v-215h53v-16h-88zM3629 -332h29l35 -170l36 170h29
l-53 -231h-25zM3645 709v241h35v-241h-35zM3658 1583v459h37l129 -307v307h57v-459h-43l-129 307v-307h-51zM3705 -270v231h33v-215h57v-16h-90zM3711 776l31 12q0 -16 6.5 -32.5t17.5 -20.5q13 -2 21 5.5t8 23.5q3 13 -7 28.5t-18 22.5t-28 23q-15 14 -24 30.5t-7.5 36
t18.5 33.5q36 22 64 8q27 -14 31 -59l-29 -4q-3 29 -12.5 40t-20 5.5t-16.5 -19.5q-2 -10 -3 -16t4.5 -14t9 -12t10.5 -11l10 -10l6 -4q6 -5 8 -6.5t7.5 -6t7.5 -7l6 -7.5t6 -8.5t4 -8.5t2 -10q9 -31 -6 -55t-44 -24q-55 0 -63 67zM3738 37v575h69l99 -274v274h92v-575h-74
l-98 282v-282h-88zM3783 -563v231h94v-22h-62v-70h52v-25h-52v-94h62v-20h-94zM3836 1063v457h61v-418h111v-39h-172zM3854 709v241h35v-241h-35zM3877 -270l43 231h37l51 -231h-35l-8 57h-45l-17 -57h-26zM3901 -563v231q8 0 28.5 2t35.5 1t27 -7q26 -17 23.5 -58.5
t-32.5 -51.5l37 -117h-33l-30 114h-23v-114h-33zM3910 932v18h110v-18h-39v-223h-26v223h-45zM3920 -190h39l-21 106zM3926 1583l98 459h64l96 -459h-59l-23 109h-94l-25 -109h-57zM3934 -424q19 0 27.5 1t15 8t6.5 22q0 24 -11.5 31.5t-37.5 7.5v-70zM4018 1741h76l-35 207
zM4030 -270v231h21l65 -154v154h31v-231h-22l-62 157v-157h-33zM4030 1520h58l67 -224l70 224h64q-9 -31 -31 -96t-33 -101l-31 -90q-4 -9 -5 -20t0 -25t1 -17v-108h-63v90v70q-17 58 -33 88zM4045 -496l31 7q0 -38 18 -46q16 -7 27.5 1.5t11.5 23.5q0 30 -57 68
q-24 24 -29.5 53.5t18.5 46.5q39 27 64 8q26 -9 26 -51l-22 -14q-1 3 -2 10.5t-2 11.5t-3 9.5t-5 8.5t-7 5q-19 10 -34 -13q-3 -6 -3 -12.5t1.5 -11t6 -9.5t8 -8t10 -8t9.5 -8q3 -4 16.5 -17.5t20 -24.5t6.5 -26q11 -28 -2 -50.5t-43 -22.5q-61 0 -65 69zM4047 37v575h164
q41 0 74.5 -38t33.5 -111q0 -98 -49 -125q55 -44 55 -150q0 -72 -33.5 -111.5t-72.5 -39.5h-172zM4139 123h45q24 0 34 28t7 66q-8 70 -49 70h-37v-164zM4139 369h37q43 0 43 75q0 86 -45 86h-35v-161zM4184 -270v231q2 0 22 0.5t29.5 0t25.5 -4.5t28 -12q10 -8 13 -23
t1 -44.5t-2 -33.5q0 -6 1 -21.5t0.5 -24.5t-2.5 -21t-8 -20t-16 -13q-8 -7 -21.5 -10.5t-22.5 -4t-27.5 0t-20.5 0.5zM4190 -563v231h29v-231h-29zM4217 -254q16 0 23.5 1.5t16 10.5t13.5 27v119q-1 24 -13.5 29.5t-39.5 5.5v-193zM4231 1583v459h66v-416h114v-43h-180z
M4254 -442q0 25 0.5 36.5t4 30.5t11 27t22 13.5t35.5 2.5q12 0 21.5 -3.5t15.5 -8t10.5 -13.5t6.5 -14.5t3 -18t1 -18v-19.5v-17v-8q0 -26 -1 -40t-6.5 -34t-19.5 -29.5t-37 -9.5q-12 0 -22 2.5t-16.5 8.5t-11.5 10.5t-8 15t-5 15.5t-3 18.5t-1 17.5v19v16zM4295 -424
q0 -4 -4 -34.5t-2 -51.5t14 -25q46 -25 50 50q1 9 1 30q0 5 1 18.5t1 24.5t-1 23.5t-4.5 20.5t-10.5 10q-45 19 -45 -35v-31zM4321 1063v61h64v-61h-64zM4321 1520h64l-23 -363h-20zM4372 244v368h99v-356q0 -85 6 -113q17 -26 45 -20q21 11 25 21q2 6 2 16q6 27 6 84v368
h92v-368q0 -93 -13 -129q-14 -41 -46 -60q-52 -33 -132 -14q-36 14 -55.5 47t-21.5 72q-7 34 -7 84zM4420 -563v231h18l72 -155v155h24v-231h-22l-74 162v-162h-18zM4696 37v575h168q38 0 71 -38t33 -111q0 -45 -17 -89.5t-52 -68.5l63 -268h-94l-51 250h-27v-250h-94z
M4790 369h51q16 9 22.5 48.5t-5 76t-37.5 36.5h-31v-161zM4993 612h98l39 -231l41 231h101l-97 -344v-231h-96v248z" />
    <glyph glyph-name=".null" 
 />
    <glyph glyph-name="nonmarkingreturn" horiz-adv-x="682" 
 />
    <glyph glyph-name="space" unicode=" " horiz-adv-x="960" 
 />
    <glyph glyph-name="exclam" unicode="!" horiz-adv-x="808" 
d="M168 842l84 1200h682l-404 -1200h-362zM-86 340q0 140 111 239t266 99q158 0 267.5 -98.5t109.5 -239.5t-109.5 -240.5t-267.5 -99.5q-154 0 -265.5 100t-111.5 240z" />
    <glyph glyph-name="quotedbl" unicode="&#x22;" horiz-adv-x="1024" 
d="M98 1268l99 770h1144l-364 -770h-367l54 420l-199 -420h-367z" />
    <glyph glyph-name="numbersign" unicode="#" horiz-adv-x="1667" 
d="M715 193l84 299h-205l-82 -295l-459 -4l84 299h-137l61 405h189l45 162h-201l66 409h250l75 269l459 4l-76 -273h203l76 269l459 4l-76 -273h137l-61 -407h-191l-45 -160h199l-62 -409h-252l-81 -295zM709 899h204l45 162l-204 -2z" />
    <glyph glyph-name="dollar" unicode="$" horiz-adv-x="1773" 
d="M567 -240l43 250q-155 23 -278 90t-198 160.5t-109 206.5t-19 231h584q4 -134 102 -192l43 254q-79 15 -146 35t-129 47.5t-109 62t-85 79t-57.5 97t-27 117t8.5 139.5q21 114 90 206t169.5 151t218.5 93.5t247 43.5l35 211h316l-39 -230q256 -52 404 -218.5t138 -413.5
l-557 10q0 88 -67 141l-35 -209q161 -36 273 -92.5t171.5 -129.5t80.5 -156.5t7 -182.5q-31 -223 -225.5 -372t-494.5 -181l-41 -248h-314zM807 1184l29 178q-62 -19 -92.5 -51t-15.5 -67.5t79 -59.5zM1001 471q72 17 106.5 55.5t17.5 83.5t-87 80z" />
    <glyph glyph-name="percent" unicode="%" horiz-adv-x="2109" 
d="M-45 0l723 811q-20 -2 -66 -2q-165 0 -287 69t-176.5 186t-33.5 259q21 141 111.5 257.5t233 185.5t306.5 69q203 0 337 -101.5t161 -263.5l325 365h649l-720 -809q232 -12 360.5 -159t97.5 -353q-21 -140 -111.5 -257t-233.5 -187t-308 -70q-172 0 -296 76t-177 203
l-248 -279h-647zM567 1323q-11 -61 15.5 -102t85.5 -41t96.5 40.5t48.5 102.5q9 63 -17 104t-85 41t-97.5 -41t-46.5 -104zM1278 514q-9 -62 17 -102.5t85 -40.5t97.5 41t46.5 102q9 63 -17.5 104t-85.5 41t-96 -41t-47 -104z" />
    <glyph glyph-name="ampersand" unicode="&#x26;" horiz-adv-x="1867" 
d="M541 0q-98 0 -179.5 15t-140.5 42t-102.5 65.5t-69.5 84t-38.5 99t-11.5 108.5t13 114q27 137 133.5 237t274.5 157q-255 112 -240 395q6 112 65.5 216t160 184.5t248.5 128.5t319 48h573l-110 -469h-424q-185 0 -213 -131q-14 -67 21 -102t120 -35h928l-78 -430h-141
l-119 -727h-465l-21 160q-224 -160 -503 -160zM627 578q-16 -71 33 -116.5t155 -45.5q84 0 149.5 49.5t102.5 148.5l18 113h-254q-84 0 -137 -40t-67 -109z" />
    <glyph glyph-name="quotesingle" unicode="'" horiz-adv-x="512" 
d="M98 1268l99 770h632l-364 -770h-367z" />
    <glyph glyph-name="parenleft" unicode="(" horiz-adv-x="944" 
d="M731 -508q-173 14 -308 103.5t-226.5 257.5t-118.5 414.5t16 574.5q27 187 89 357t144.5 301t183 236t206 169.5t213.5 93.5t205 16l-82 -448q-84 0 -160 -94.5t-133.5 -256t-93.5 -374.5q-71 -410 -32.5 -636t175.5 -226z" />
    <glyph glyph-name="parenright" unicode=")" horiz-adv-x="989" 
d="M-135 -53q84 0 160 94.5t133.5 256t93.5 374.5q71 410 32.5 636t-175.5 226l77 487q173 -13 308 -102.5t226.5 -257.5t118.5 -414.5t-16 -574.5q-27 -186 -89 -356t-144 -301t-182.5 -236t-206 -170t-213.5 -94.5t-205 -16.5z" />
    <glyph glyph-name="asterisk" unicode="*" horiz-adv-x="1486" 
d="M1544 1184l-340 80l144 -330l-437 -170l-86 393l-231 -360l-404 235l248 291l-385 -35l88 465l346 -74l-137 299l420 152l119 -361l209 361l403 -250l-207 -254l332 19z" />
    <glyph glyph-name="plus" unicode="+" horiz-adv-x="1546" 
d="M348 289l60 379h-375l86 557h375l59 377l643 8l-59 -385h374l-90 -557h-372l-60 -377z" />
    <glyph glyph-name="comma" unicode="," horiz-adv-x="714" 
d="M168 -354l-332 63l154 860h637z" />
    <glyph glyph-name="hyphen" unicode="-" horiz-adv-x="1005" 
d="M20 569l89 557h864l-84 -557h-869z" />
    <glyph glyph-name="period" unicode="." horiz-adv-x="966" 
d="M397 0q-178 0 -302 112.5t-124 270.5q0 159 124 270t302 111q177 0 301.5 -111.5t124.5 -269.5q0 -157 -125 -270t-301 -113z" />
    <glyph glyph-name="slash" unicode="/" horiz-adv-x="1331" 
d="M-252 -209l1256 2040h548l-1253 -2040h-551z" />
    <glyph glyph-name="uni0030" unicode="0" horiz-adv-x="6334" 
d="M3463 1579q-102 0 -117 98q-6 29 -6 84q0 15 -0.5 50.5t-0.5 55.5t2 47.5t7 47.5q16 78 109 82q42 0 77 -16t46 -50q8 -20 11.5 -47.5t3.5 -49t-1.5 -55t-1.5 -48.5q0 -76 -6 -105q-19 -94 -123 -94zM1421 41l9 575h92l69 -360l66 360h98l2 -575h-80l-10 240l-41 -240
h-67l-48 233l-4 -233h-86zM1833 41v575h74l96 -274v274h92v-575h-72l-100 283v-283h-90zM2132 -401q0 34 19.5 55t56.5 14q22 -1 33 -14t12.5 -25.5t1.5 -36.5h-29q0 34 -2 41q-6 15 -24 16t-27 -11q-4 -6 -6 -18.5t-2.5 -21t0 -24.5t0.5 -18t-0.5 -13.5t0 -18.5t1.5 -18
t3.5 -19.5t7.5 -14.5q6 -12 23.5 -10.5t23.5 16.5q2 7 2 45h29q0 -25 -2.5 -41.5t-15.5 -31.5t-37 -15q-17 0 -30 5.5t-20.5 17.5t-11.5 23.5t-5.5 29.5t-1.5 30t0.5 31.5t0.5 26.5zM2159 41v104h98v-104h-98zM2284 -442q0 25 0.5 36.5t3.5 30.5t10 27t20 13.5t33 2.5
q23 -1 37 -10t19.5 -27.5t6.5 -31.5t1 -36v-7v-27.5t-1.5 -26t-6 -27t-11 -20t-19 -16t-28.5 -4.5q-19 0 -32 6.5t-19.5 14t-10 24.5t-4 24.5t0 29t0.5 24.5zM2288 1583v459h98q85 0 111 -51q24 -40 18.5 -92t-41.5 -78q-6 -6 -13.5 -11t-18 -8t-17 -4.5t-20.5 -2.5t-18 -1
h-20h-18v-211h-61zM2292 244l92 4q0 -70 20 -103q16 -27 37 -18q25 6 25 47q0 21 -10.5 43.5t-22 36t-31.5 35t-26 28.5q-8 11 -29 30t-25 30q-37 60 -22 135q2 62 60 95t118 5q76 -37 76 -184l-88 -4q-2 9 -4.5 41t-9 49.5t-23.5 20.5q-30 1 -39.5 -26.5t-1.5 -47.5
q4 -12 11.5 -22.5t12.5 -16t16 -15.5t15 -14l45 -51q80 -80 68 -192q-2 -39 -28.5 -72t-71.5 -43q-43 -6 -82.5 11.5t-57.5 55.5q-24 65 -24 142zM2292 1233v287h59v-308q0 -29 1 -42.5t10 -35t28 -32.5q46 -13 65 19.5t19 82.5v146v170h63v-209q0 -10 1 -43t1 -51.5t-4 -48
t-11.5 -47t-24 -34.5t-39.5 -24q-39 -21 -89 -3.5t-67 62.5q-12 31 -12 111zM2312 -424q0 -4 -0.5 -20t-0.5 -28t1 -26.5t5.5 -24t11.5 -12.5q48 -25 51 50v30q0 3 0.5 18.5t0 25t-1.5 22.5t-5 21t-11 10q-24 11 -37.5 -0.5t-13.5 -34.5v-31zM2349 1843q51 0 68 4
q39 9 39 64q0 16 -0.5 25t-4 22t-12 21t-22.5 12q-11 4 -22 4.5t-25 -1t-21 -1.5v-150zM2372 -270v231h88v-22h-54v-80h43v-21h-43v-108h-34zM2443 -563v231h37l43 -184l37 184h33l2 -231h-23v170l-37 -170h-26l-37 170v-170h-29zM2480 -147q0 22 0.5 33.5t4 29.5t10.5 27
t21 16.5t34 7.5q12 -2 21.5 -7t15.5 -9.5t10.5 -15.5t7 -16t3.5 -19.5t1 -18v-20v-17.5q0 -17 -0.5 -26.5t-2 -25.5t-5.5 -25.5t-10.5 -19.5t-18 -14.5t-26.5 -4.5q-19 0 -32.5 7.5t-20 16.5t-10 28t-3.5 29v33v11zM2513 -141q0 -2 -1.5 -22.5t-1.5 -35t6 -30.5t19 -21
q14 -4 23.5 3t12.5 23.5t4 28t1 31.5q0 3 1 23t1 33t-4.5 27.5t-13.5 17.5q-18 12 -32.5 -2.5t-14.5 -38.5v-37zM2560 1583v459h174v-49h-113v-150h95v-49h-95v-168h117v-43h-178zM2587 1186l63 18q0 -3 2 -18t3 -20t3.5 -15.5t6 -17t8.5 -11.5q14 -16 35.5 -18t33.5 12
q20 18 20 43.5t-14 46.5q-3 4 -12 16.5t-18 21t-21 13.5q-6 6 -28.5 24.5t-37.5 33.5t-24 31q-18 29 -19 64.5t18 66.5t54 43q57 10 111 -19q39 -29 39 -98l-49 -19q-4 75 -49 82q-22 7 -38.5 -2.5t-19.5 -29.5q-3 -9 -3.5 -18.5t1.5 -17t7 -15.5t10 -14t13 -14t14.5 -13
t15.5 -12.5t14 -12.5q4 -3 23 -19.5t25 -23t18 -21t17 -28.5t7 -31q12 -53 -18.5 -95t-85.5 -42t-87.5 36t-37.5 93zM2601 330q0 17 -1.5 53.5t-1 63t4.5 49.5q14 89 84 120q80 19 127 -12q18 -11 31 -28.5t19 -33t9 -40t3.5 -37.5t0.5 -39v-12h-94q0 74 -4.5 93t-23.5 28
q-31 4 -42.5 -18t-11.5 -60v-209q0 -5 -0.5 -19t-1 -24t1 -24.5t5 -24t10.5 -18t18 -11.5q11 -2 19.5 -3.5t15 5.5t10.5 12.5t6.5 18t4 21t2 22t0.5 21.5t-0.5 18.5t-0.5 13.5h-57v86h148v-301h-74l-4 18q-27 -24 -70 -25.5t-72 19.5q-50 22 -59 117q-4 25 -4.5 50.5t1 59.5
t1.5 50zM2636 -563v231h35l41 -184l38 184h31l4 -231h-20l-4 170l-37 -170h-27l-31 170l-6 -170h-24zM2644 -270v231q7 0 21 0.5t23 1t21 -1.5t21 -6q27 -14 29 -57t-29 -54l35 -114h-35l-33 108h-24v-108h-29zM2666 709v241q4 0 20.5 0.5t25.5 0t22.5 -2.5t23 -8t15.5 -16
q7 -20 5 -48.5t-13 -39.5q-6 -4 -11.5 -7t-9.5 -4.5t-11.5 -2.5t-10.5 -1h-12.5h-12.5v-112h-31zM2673 -141q27 0 42 9t15 34q0 24 -13.5 30.5t-43.5 6.5v-80zM2697 842q29 0 33 4q18 10 18 47q0 19 -7 27.5t-15.5 10t-28.5 1.5v-90zM2785 1583v459q8 0 36 0.5t41.5 0
t35.5 -2t38.5 -6t31.5 -11.5q50 -30 51.5 -109.5t-51.5 -101.5l55 -229h-55l-66 213h-47v-213h-70zM2810 709v241h24v-215h62v-26h-86zM2824 -563v231h92v-22h-57v-70h47v-25h-47v-94h57v-20h-92zM2839 -61v22h122v-22h-45v-209h-34v209h-43zM2855 1843q40 0 63 4
q44 20 37 78q0 52 -37 62q-10 5 -20.5 6.5t-25.5 0.5t-17 -1v-150zM2873 1063v457h176v-54h-116v-149h92v-45h-92v-170h116v-39h-176zM2902 -31l154 721h90l-164 -721h-80zM2918 709v241h91v-18h-60v-86h49v-25h-49v-86h60v-26h-91zM2939 -563v231q11 0 31.5 2t34 1t24.5 -7
q26 -18 26 -58t-30 -50l35 -119h-31l-27 114h-26v-114h-37zM2976 -424q18 0 26.5 1t15.5 8t7 22q0 24 -12 31.5t-37 7.5v-70zM2976 -270v231h28v-102h66v102h33v-231h-33v108h-66v-108h-28zM3023 709l51 241h37l45 -241h-33l-12 65h-51l-6 -65h-31zM3062 793h49l-23 114z
M3062 1710l63 19q3 -60 25 -82q15 -17 38 -19t38 12q17 14 16 40.5t-16 48.5q-3 3 -11.5 13t-18.5 19.5t-22 18.5q-6 6 -39.5 36t-48.5 48q-19 32 -20.5 69t18.5 66.5t58 36.5q21 9 53 5.5t55 -18.5q32 -20 41 -96l-51 -16q-1 3 -4 16t-4.5 18.5t-5.5 16.5t-8.5 16.5
t-11.5 11.5t-15 9q-23 0 -41.5 -11t-22.5 -30q-3 -25 10.5 -48.5t28 -36t39.5 -30.5q8 -8 27 -28t28.5 -31t21 -29.5t15.5 -36.5q11 -55 -19.5 -97t-86.5 -42q-58 0 -92 36.5t-37 94.5zM3088 -401q0 34 19 55t55 14q29 -1 38 -21.5t9 -54.5h-33q0 2 1.5 10.5t1 16.5t-4.5 14
q-3 15 -20 16t-27 -11q-7 -8 -8.5 -22.5t0.5 -35.5t2 -24q0 -2 -2 -23t-0.5 -36.5t8.5 -24.5q10 -12 27 -10.5t20 16.5q4 6 4.5 13.5t-1 17.5t-1.5 14h33q0 -25 -3 -41.5t-16.5 -31.5t-39.5 -15q-24 0 -38.5 10.5t-19.5 32t-6 37.5t0.5 46t1.5 38zM3135 -270v231h91v-22h-56
v-80h45v-21h-45v-92h56v-16h-91zM3166 37v575h92q86 0 124 -43.5t38 -136.5v-215q0 -94 -35.5 -137t-113.5 -43h-105zM3170 776l35 12q0 -47 14 -53q39 -3 39 29q0 13 -9.5 26.5t-24.5 27.5t-19 20q-26 21 -32 48.5t18 51.5q25 21 63 8q33 -14 33 -59l-29 -4q-14 49 -36 47
q-14 -1 -17 -21q-9 -31 27 -63q5 -4 17.5 -12.5t18.5 -13.5t12 -14t7 -18q9 -32 -6.5 -55.5t-48.5 -23.5q-25 0 -42 19.5t-20 47.5zM3219 1245q0 15 -0.5 49t-0.5 53.5t2 46.5t6 48q26 78 112 78q100 0 119 -66q12 -26 14.5 -59t-1 -79.5t-3.5 -58.5t1.5 -36.5t0.5 -41
t-6 -32.5q-6 -44 -36.5 -67t-78.5 -23q-49 0 -83.5 25t-38.5 69q-7 36 -7 94zM3244 -563v231h33v-231h-33zM3258 127h33q27 15 27 33q4 27 4 84v155q0 57 -4 82q0 10 -8.5 21.5t-18.5 11.5h-33v-387zM3287 1204q0 -63 12 -81q7 -9 15 -13q34 -13 57 0q33 16 37 57
q2 6 2 15.5t-1 20.5t-1 14v165v11.5v12t-0.5 10.5t-1.5 11t-3 9.5t-5 9.5t-7 8q-40 24 -57 12q-19 0 -29 -8t-18 -28q-4 -20 -4 -45t2 -56.5t2 -46.5v-78zM3299 -563l49 231h35l54 -231h-31l-10 61h-50l-12 -61h-35zM3314 709v241h94v-18h-60v-86h48v-25h-48v-86h64v-26h-98
zM3326 -270v231h88v-22h-66v-80h48v-21h-48v-108h-22zM3348 -485h43l-20 112zM3408 1722v-20.5t1.5 -19.5t5 -22t10.5 -16t18 -14q9 -4 25.5 -4t25.5 4q33 18 33 62v209q0 56 -21 77q-18 25 -51 15q-17 -2 -27 -12t-16 -33q-7 -17 -8 -41t1.5 -57t2.5 -46v-82zM3430 37
l107 575h90l98 -575h-96l-18 137h-62l-20 -137h-99zM3437 -215q-2 6 -2 15.5t1 21t1 16.5v123h24v-102q0 -2 -1 -22t0 -31.5t3.5 -27.5t9.5 -24t19 -8q13 0 21 8t11 24.5t3.5 27t0 31.5t-0.5 22v102h28v-104v-16.5v-19t-1 -18.5t-2.5 -19.5t-4.5 -17t-7.5 -16t-11.5 -11.5
t-16 -9q-65 -18 -75 55zM3457 -563v231h31v-211h61v-20h-92zM3488 950h35l32 -174l37 174h29l-49 -241h-33zM3537 1063v457h43l129 -308v308h57v-457h-45l-135 309v-309h-49zM3564 256h30l-16 117zM3592 -270v231h35v-215h53v-16h-88zM3629 -332h29l35 -170l36 170h29
l-53 -231h-25zM3645 709v241h35v-241h-35zM3658 1583v459h37l129 -307v307h57v-459h-43l-129 307v-307h-51zM3705 -270v231h33v-215h57v-16h-90zM3711 776l31 12q0 -16 6.5 -32.5t17.5 -20.5q13 -2 21 5.5t8 23.5q3 13 -7 28.5t-18 22.5t-28 23q-15 14 -24 30.5t-7.5 36
t18.5 33.5q36 22 64 8q27 -14 31 -59l-29 -4q-3 29 -12.5 40t-20 5.5t-16.5 -19.5q-2 -10 -3 -16t4.5 -14t9 -12t10.5 -11l10 -10l6 -4q6 -5 8 -6.5t7.5 -6t7.5 -7l6 -7.5t6 -8.5t4 -8.5t2 -10q9 -31 -6 -55t-44 -24q-55 0 -63 67zM3738 37v575h69l99 -274v274h92v-575h-74
l-98 282v-282h-88zM3783 -563v231h94v-22h-62v-70h52v-25h-52v-94h62v-20h-94zM3836 1063v457h61v-418h111v-39h-172zM3854 709v241h35v-241h-35zM3877 -270l43 231h37l51 -231h-35l-8 57h-45l-17 -57h-26zM3901 -563v231q8 0 28.5 2t35.5 1t27 -7q26 -17 23.5 -58.5
t-32.5 -51.5l37 -117h-33l-30 114h-23v-114h-33zM3910 932v18h110v-18h-39v-223h-26v223h-45zM3920 -190h39l-21 106zM3926 1583l98 459h64l96 -459h-59l-23 109h-94l-25 -109h-57zM3934 -424q19 0 27.5 1t15 8t6.5 22q0 24 -11.5 31.5t-37.5 7.5v-70zM4018 1741h76l-35 207
zM4030 -270v231h21l65 -154v154h31v-231h-22l-62 157v-157h-33zM4030 1520h58l67 -224l70 224h64q-9 -31 -31 -96t-33 -101l-31 -90q-4 -9 -5 -20t0 -25t1 -17v-108h-63v90v70q-17 58 -33 88zM4045 -496l31 7q0 -38 18 -46q16 -7 27.5 1.5t11.5 23.5q0 30 -57 68
q-24 24 -29.5 53.5t18.5 46.5q39 27 64 8q26 -9 26 -51l-22 -14q-1 3 -2 10.5t-2 11.5t-3 9.5t-5 8.5t-7 5q-19 10 -34 -13q-3 -6 -3 -12.5t1.5 -11t6 -9.5t8 -8t10 -8t9.5 -8q3 -4 16.5 -17.5t20 -24.5t6.5 -26q11 -28 -2 -50.5t-43 -22.5q-61 0 -65 69zM4047 37v575h164
q41 0 74.5 -38t33.5 -111q0 -98 -49 -125q55 -44 55 -150q0 -72 -33.5 -111.5t-72.5 -39.5h-172zM4139 123h45q24 0 34 28t7 66q-8 70 -49 70h-37v-164zM4139 369h37q43 0 43 75q0 86 -45 86h-35v-161zM4184 -270v231q2 0 22 0.5t29.5 0t25.5 -4.5t28 -12q10 -8 13 -23
t1 -44.5t-2 -33.5q0 -6 1 -21.5t0.5 -24.5t-2.5 -21t-8 -20t-16 -13q-8 -7 -21.5 -10.5t-22.5 -4t-27.5 0t-20.5 0.5zM4190 -563v231h29v-231h-29zM4217 -254q16 0 23.5 1.5t16 10.5t13.5 27v119q-1 24 -13.5 29.5t-39.5 5.5v-193zM4231 1583v459h66v-416h114v-43h-180z
M4254 -442q0 25 0.5 36.5t4 30.5t11 27t22 13.5t35.5 2.5q12 0 21.5 -3.5t15.5 -8t10.5 -13.5t6.5 -14.5t3 -18t1 -18v-19.5v-17v-8q0 -26 -1 -40t-6.5 -34t-19.5 -29.5t-37 -9.5q-12 0 -22 2.5t-16.5 8.5t-11.5 10.5t-8 15t-5 15.5t-3 18.5t-1 17.5v19v16zM4295 -424
q0 -4 -4 -34.5t-2 -51.5t14 -25q46 -25 50 50q1 9 1 30q0 5 1 18.5t1 24.5t-1 23.5t-4.5 20.5t-10.5 10q-45 19 -45 -35v-31zM4321 1063v61h64v-61h-64zM4321 1520h64l-23 -363h-20zM4372 244v368h99v-356q0 -85 6 -113q17 -26 45 -20q21 11 25 21q2 6 2 16q6 27 6 84v368
h92v-368q0 -93 -13 -129q-14 -41 -46 -60q-52 -33 -132 -14q-36 14 -55.5 47t-21.5 72q-7 34 -7 84zM4420 -563v231h18l72 -155v155h24v-231h-22l-74 162v-162h-18zM4696 37v575h168q38 0 71 -38t33 -111q0 -45 -17 -89.5t-52 -68.5l63 -268h-94l-51 250h-27v-250h-94z
M4790 369h51q16 9 22.5 48.5t-5 76t-37.5 36.5h-31v-161zM4993 612h98l39 -231l41 231h101l-97 -344v-231h-96v248z" />
    <glyph glyph-name="uni0030" unicode="9" horiz-adv-x="6334" 
d="M3463 1579q-102 0 -117 98q-6 29 -6 84q0 15 -0.5 50.5t-0.5 55.5t2 47.5t7 47.5q16 78 109 82q42 0 77 -16t46 -50q8 -20 11.5 -47.5t3.5 -49t-1.5 -55t-1.5 -48.5q0 -76 -6 -105q-19 -94 -123 -94zM1421 41l9 575h92l69 -360l66 360h98l2 -575h-80l-10 240l-41 -240
h-67l-48 233l-4 -233h-86zM1833 41v575h74l96 -274v274h92v-575h-72l-100 283v-283h-90zM2132 -401q0 34 19.5 55t56.5 14q22 -1 33 -14t12.5 -25.5t1.5 -36.5h-29q0 34 -2 41q-6 15 -24 16t-27 -11q-4 -6 -6 -18.5t-2.5 -21t0 -24.5t0.5 -18t-0.5 -13.5t0 -18.5t1.5 -18
t3.5 -19.5t7.5 -14.5q6 -12 23.5 -10.5t23.5 16.5q2 7 2 45h29q0 -25 -2.5 -41.5t-15.5 -31.5t-37 -15q-17 0 -30 5.5t-20.5 17.5t-11.5 23.5t-5.5 29.5t-1.5 30t0.5 31.5t0.5 26.5zM2159 41v104h98v-104h-98zM2284 -442q0 25 0.5 36.5t3.5 30.5t10 27t20 13.5t33 2.5
q23 -1 37 -10t19.5 -27.5t6.5 -31.5t1 -36v-7v-27.5t-1.5 -26t-6 -27t-11 -20t-19 -16t-28.5 -4.5q-19 0 -32 6.5t-19.5 14t-10 24.5t-4 24.5t0 29t0.5 24.5zM2288 1583v459h98q85 0 111 -51q24 -40 18.5 -92t-41.5 -78q-6 -6 -13.5 -11t-18 -8t-17 -4.5t-20.5 -2.5t-18 -1
h-20h-18v-211h-61zM2292 244l92 4q0 -70 20 -103q16 -27 37 -18q25 6 25 47q0 21 -10.5 43.5t-22 36t-31.5 35t-26 28.5q-8 11 -29 30t-25 30q-37 60 -22 135q2 62 60 95t118 5q76 -37 76 -184l-88 -4q-2 9 -4.5 41t-9 49.5t-23.5 20.5q-30 1 -39.5 -26.5t-1.5 -47.5
q4 -12 11.5 -22.5t12.5 -16t16 -15.5t15 -14l45 -51q80 -80 68 -192q-2 -39 -28.5 -72t-71.5 -43q-43 -6 -82.5 11.5t-57.5 55.5q-24 65 -24 142zM2292 1233v287h59v-308q0 -29 1 -42.5t10 -35t28 -32.5q46 -13 65 19.5t19 82.5v146v170h63v-209q0 -10 1 -43t1 -51.5t-4 -48
t-11.5 -47t-24 -34.5t-39.5 -24q-39 -21 -89 -3.5t-67 62.5q-12 31 -12 111zM2312 -424q0 -4 -0.5 -20t-0.5 -28t1 -26.5t5.5 -24t11.5 -12.5q48 -25 51 50v30q0 3 0.5 18.5t0 25t-1.5 22.5t-5 21t-11 10q-24 11 -37.5 -0.5t-13.5 -34.5v-31zM2349 1843q51 0 68 4
q39 9 39 64q0 16 -0.5 25t-4 22t-12 21t-22.5 12q-11 4 -22 4.5t-25 -1t-21 -1.5v-150zM2372 -270v231h88v-22h-54v-80h43v-21h-43v-108h-34zM2443 -563v231h37l43 -184l37 184h33l2 -231h-23v170l-37 -170h-26l-37 170v-170h-29zM2480 -147q0 22 0.5 33.5t4 29.5t10.5 27
t21 16.5t34 7.5q12 -2 21.5 -7t15.5 -9.5t10.5 -15.5t7 -16t3.5 -19.5t1 -18v-20v-17.5q0 -17 -0.5 -26.5t-2 -25.5t-5.5 -25.5t-10.5 -19.5t-18 -14.5t-26.5 -4.5q-19 0 -32.5 7.5t-20 16.5t-10 28t-3.5 29v33v11zM2513 -141q0 -2 -1.5 -22.5t-1.5 -35t6 -30.5t19 -21
q14 -4 23.5 3t12.5 23.5t4 28t1 31.5q0 3 1 23t1 33t-4.5 27.5t-13.5 17.5q-18 12 -32.5 -2.5t-14.5 -38.5v-37zM2560 1583v459h174v-49h-113v-150h95v-49h-95v-168h117v-43h-178zM2587 1186l63 18q0 -3 2 -18t3 -20t3.5 -15.5t6 -17t8.5 -11.5q14 -16 35.5 -18t33.5 12
q20 18 20 43.5t-14 46.5q-3 4 -12 16.5t-18 21t-21 13.5q-6 6 -28.5 24.5t-37.5 33.5t-24 31q-18 29 -19 64.5t18 66.5t54 43q57 10 111 -19q39 -29 39 -98l-49 -19q-4 75 -49 82q-22 7 -38.5 -2.5t-19.5 -29.5q-3 -9 -3.5 -18.5t1.5 -17t7 -15.5t10 -14t13 -14t14.5 -13
t15.5 -12.5t14 -12.5q4 -3 23 -19.5t25 -23t18 -21t17 -28.5t7 -31q12 -53 -18.5 -95t-85.5 -42t-87.5 36t-37.5 93zM2601 330q0 17 -1.5 53.5t-1 63t4.5 49.5q14 89 84 120q80 19 127 -12q18 -11 31 -28.5t19 -33t9 -40t3.5 -37.5t0.5 -39v-12h-94q0 74 -4.5 93t-23.5 28
q-31 4 -42.5 -18t-11.5 -60v-209q0 -5 -0.5 -19t-1 -24t1 -24.5t5 -24t10.5 -18t18 -11.5q11 -2 19.5 -3.5t15 5.5t10.5 12.5t6.5 18t4 21t2 22t0.5 21.5t-0.5 18.5t-0.5 13.5h-57v86h148v-301h-74l-4 18q-27 -24 -70 -25.5t-72 19.5q-50 22 -59 117q-4 25 -4.5 50.5t1 59.5
t1.5 50zM2636 -563v231h35l41 -184l38 184h31l4 -231h-20l-4 170l-37 -170h-27l-31 170l-6 -170h-24zM2644 -270v231q7 0 21 0.5t23 1t21 -1.5t21 -6q27 -14 29 -57t-29 -54l35 -114h-35l-33 108h-24v-108h-29zM2666 709v241q4 0 20.5 0.5t25.5 0t22.5 -2.5t23 -8t15.5 -16
q7 -20 5 -48.5t-13 -39.5q-6 -4 -11.5 -7t-9.5 -4.5t-11.5 -2.5t-10.5 -1h-12.5h-12.5v-112h-31zM2673 -141q27 0 42 9t15 34q0 24 -13.5 30.5t-43.5 6.5v-80zM2697 842q29 0 33 4q18 10 18 47q0 19 -7 27.5t-15.5 10t-28.5 1.5v-90zM2785 1583v459q8 0 36 0.5t41.5 0
t35.5 -2t38.5 -6t31.5 -11.5q50 -30 51.5 -109.5t-51.5 -101.5l55 -229h-55l-66 213h-47v-213h-70zM2810 709v241h24v-215h62v-26h-86zM2824 -563v231h92v-22h-57v-70h47v-25h-47v-94h57v-20h-92zM2839 -61v22h122v-22h-45v-209h-34v209h-43zM2855 1843q40 0 63 4
q44 20 37 78q0 52 -37 62q-10 5 -20.5 6.5t-25.5 0.5t-17 -1v-150zM2873 1063v457h176v-54h-116v-149h92v-45h-92v-170h116v-39h-176zM2902 -31l154 721h90l-164 -721h-80zM2918 709v241h91v-18h-60v-86h49v-25h-49v-86h60v-26h-91zM2939 -563v231q11 0 31.5 2t34 1t24.5 -7
q26 -18 26 -58t-30 -50l35 -119h-31l-27 114h-26v-114h-37zM2976 -424q18 0 26.5 1t15.5 8t7 22q0 24 -12 31.5t-37 7.5v-70zM2976 -270v231h28v-102h66v102h33v-231h-33v108h-66v-108h-28zM3023 709l51 241h37l45 -241h-33l-12 65h-51l-6 -65h-31zM3062 793h49l-23 114z
M3062 1710l63 19q3 -60 25 -82q15 -17 38 -19t38 12q17 14 16 40.5t-16 48.5q-3 3 -11.5 13t-18.5 19.5t-22 18.5q-6 6 -39.5 36t-48.5 48q-19 32 -20.5 69t18.5 66.5t58 36.5q21 9 53 5.5t55 -18.5q32 -20 41 -96l-51 -16q-1 3 -4 16t-4.5 18.5t-5.5 16.5t-8.5 16.5
t-11.5 11.5t-15 9q-23 0 -41.5 -11t-22.5 -30q-3 -25 10.5 -48.5t28 -36t39.5 -30.5q8 -8 27 -28t28.5 -31t21 -29.5t15.5 -36.5q11 -55 -19.5 -97t-86.5 -42q-58 0 -92 36.5t-37 94.5zM3088 -401q0 34 19 55t55 14q29 -1 38 -21.5t9 -54.5h-33q0 2 1.5 10.5t1 16.5t-4.5 14
q-3 15 -20 16t-27 -11q-7 -8 -8.5 -22.5t0.5 -35.5t2 -24q0 -2 -2 -23t-0.5 -36.5t8.5 -24.5q10 -12 27 -10.5t20 16.5q4 6 4.5 13.5t-1 17.5t-1.5 14h33q0 -25 -3 -41.5t-16.5 -31.5t-39.5 -15q-24 0 -38.5 10.5t-19.5 32t-6 37.5t0.5 46t1.5 38zM3135 -270v231h91v-22h-56
v-80h45v-21h-45v-92h56v-16h-91zM3166 37v575h92q86 0 124 -43.5t38 -136.5v-215q0 -94 -35.5 -137t-113.5 -43h-105zM3170 776l35 12q0 -47 14 -53q39 -3 39 29q0 13 -9.5 26.5t-24.5 27.5t-19 20q-26 21 -32 48.5t18 51.5q25 21 63 8q33 -14 33 -59l-29 -4q-14 49 -36 47
q-14 -1 -17 -21q-9 -31 27 -63q5 -4 17.5 -12.5t18.5 -13.5t12 -14t7 -18q9 -32 -6.5 -55.5t-48.5 -23.5q-25 0 -42 19.5t-20 47.5zM3219 1245q0 15 -0.5 49t-0.5 53.5t2 46.5t6 48q26 78 112 78q100 0 119 -66q12 -26 14.5 -59t-1 -79.5t-3.5 -58.5t1.5 -36.5t0.5 -41
t-6 -32.5q-6 -44 -36.5 -67t-78.5 -23q-49 0 -83.5 25t-38.5 69q-7 36 -7 94zM3244 -563v231h33v-231h-33zM3258 127h33q27 15 27 33q4 27 4 84v155q0 57 -4 82q0 10 -8.5 21.5t-18.5 11.5h-33v-387zM3287 1204q0 -63 12 -81q7 -9 15 -13q34 -13 57 0q33 16 37 57
q2 6 2 15.5t-1 20.5t-1 14v165v11.5v12t-0.5 10.5t-1.5 11t-3 9.5t-5 9.5t-7 8q-40 24 -57 12q-19 0 -29 -8t-18 -28q-4 -20 -4 -45t2 -56.5t2 -46.5v-78zM3299 -563l49 231h35l54 -231h-31l-10 61h-50l-12 -61h-35zM3314 709v241h94v-18h-60v-86h48v-25h-48v-86h64v-26h-98
zM3326 -270v231h88v-22h-66v-80h48v-21h-48v-108h-22zM3348 -485h43l-20 112zM3408 1722v-20.5t1.5 -19.5t5 -22t10.5 -16t18 -14q9 -4 25.5 -4t25.5 4q33 18 33 62v209q0 56 -21 77q-18 25 -51 15q-17 -2 -27 -12t-16 -33q-7 -17 -8 -41t1.5 -57t2.5 -46v-82zM3430 37
l107 575h90l98 -575h-96l-18 137h-62l-20 -137h-99zM3437 -215q-2 6 -2 15.5t1 21t1 16.5v123h24v-102q0 -2 -1 -22t0 -31.5t3.5 -27.5t9.5 -24t19 -8q13 0 21 8t11 24.5t3.5 27t0 31.5t-0.5 22v102h28v-104v-16.5v-19t-1 -18.5t-2.5 -19.5t-4.5 -17t-7.5 -16t-11.5 -11.5
t-16 -9q-65 -18 -75 55zM3457 -563v231h31v-211h61v-20h-92zM3488 950h35l32 -174l37 174h29l-49 -241h-33zM3537 1063v457h43l129 -308v308h57v-457h-45l-135 309v-309h-49zM3564 256h30l-16 117zM3592 -270v231h35v-215h53v-16h-88zM3629 -332h29l35 -170l36 170h29
l-53 -231h-25zM3645 709v241h35v-241h-35zM3658 1583v459h37l129 -307v307h57v-459h-43l-129 307v-307h-51zM3705 -270v231h33v-215h57v-16h-90zM3711 776l31 12q0 -16 6.5 -32.5t17.5 -20.5q13 -2 21 5.5t8 23.5q3 13 -7 28.5t-18 22.5t-28 23q-15 14 -24 30.5t-7.5 36
t18.5 33.5q36 22 64 8q27 -14 31 -59l-29 -4q-3 29 -12.5 40t-20 5.5t-16.5 -19.5q-2 -10 -3 -16t4.5 -14t9 -12t10.5 -11l10 -10l6 -4q6 -5 8 -6.5t7.5 -6t7.5 -7l6 -7.5t6 -8.5t4 -8.5t2 -10q9 -31 -6 -55t-44 -24q-55 0 -63 67zM3738 37v575h69l99 -274v274h92v-575h-74
l-98 282v-282h-88zM3783 -563v231h94v-22h-62v-70h52v-25h-52v-94h62v-20h-94zM3836 1063v457h61v-418h111v-39h-172zM3854 709v241h35v-241h-35zM3877 -270l43 231h37l51 -231h-35l-8 57h-45l-17 -57h-26zM3901 -563v231q8 0 28.5 2t35.5 1t27 -7q26 -17 23.5 -58.5
t-32.5 -51.5l37 -117h-33l-30 114h-23v-114h-33zM3910 932v18h110v-18h-39v-223h-26v223h-45zM3920 -190h39l-21 106zM3926 1583l98 459h64l96 -459h-59l-23 109h-94l-25 -109h-57zM3934 -424q19 0 27.5 1t15 8t6.5 22q0 24 -11.5 31.5t-37.5 7.5v-70zM4018 1741h76l-35 207
zM4030 -270v231h21l65 -154v154h31v-231h-22l-62 157v-157h-33zM4030 1520h58l67 -224l70 224h64q-9 -31 -31 -96t-33 -101l-31 -90q-4 -9 -5 -20t0 -25t1 -17v-108h-63v90v70q-17 58 -33 88zM4045 -496l31 7q0 -38 18 -46q16 -7 27.5 1.5t11.5 23.5q0 30 -57 68
q-24 24 -29.5 53.5t18.5 46.5q39 27 64 8q26 -9 26 -51l-22 -14q-1 3 -2 10.5t-2 11.5t-3 9.5t-5 8.5t-7 5q-19 10 -34 -13q-3 -6 -3 -12.5t1.5 -11t6 -9.5t8 -8t10 -8t9.5 -8q3 -4 16.5 -17.5t20 -24.5t6.5 -26q11 -28 -2 -50.5t-43 -22.5q-61 0 -65 69zM4047 37v575h164
q41 0 74.5 -38t33.5 -111q0 -98 -49 -125q55 -44 55 -150q0 -72 -33.5 -111.5t-72.5 -39.5h-172zM4139 123h45q24 0 34 28t7 66q-8 70 -49 70h-37v-164zM4139 369h37q43 0 43 75q0 86 -45 86h-35v-161zM4184 -270v231q2 0 22 0.5t29.5 0t25.5 -4.5t28 -12q10 -8 13 -23
t1 -44.5t-2 -33.5q0 -6 1 -21.5t0.5 -24.5t-2.5 -21t-8 -20t-16 -13q-8 -7 -21.5 -10.5t-22.5 -4t-27.5 0t-20.5 0.5zM4190 -563v231h29v-231h-29zM4217 -254q16 0 23.5 1.5t16 10.5t13.5 27v119q-1 24 -13.5 29.5t-39.5 5.5v-193zM4231 1583v459h66v-416h114v-43h-180z
M4254 -442q0 25 0.5 36.5t4 30.5t11 27t22 13.5t35.5 2.5q12 0 21.5 -3.5t15.5 -8t10.5 -13.5t6.5 -14.5t3 -18t1 -18v-19.5v-17v-8q0 -26 -1 -40t-6.5 -34t-19.5 -29.5t-37 -9.5q-12 0 -22 2.5t-16.5 8.5t-11.5 10.5t-8 15t-5 15.5t-3 18.5t-1 17.5v19v16zM4295 -424
q0 -4 -4 -34.5t-2 -51.5t14 -25q46 -25 50 50q1 9 1 30q0 5 1 18.5t1 24.5t-1 23.5t-4.5 20.5t-10.5 10q-45 19 -45 -35v-31zM4321 1063v61h64v-61h-64zM4321 1520h64l-23 -363h-20zM4372 244v368h99v-356q0 -85 6 -113q17 -26 45 -20q21 11 25 21q2 6 2 16q6 27 6 84v368
h92v-368q0 -93 -13 -129q-14 -41 -46 -60q-52 -33 -132 -14q-36 14 -55.5 47t-21.5 72q-7 34 -7 84zM4420 -563v231h18l72 -155v155h24v-231h-22l-74 162v-162h-18zM4696 37v575h168q38 0 71 -38t33 -111q0 -45 -17 -89.5t-52 -68.5l63 -268h-94l-51 250h-27v-250h-94z
M4790 369h51q16 9 22.5 48.5t-5 76t-37.5 36.5h-31v-161zM4993 612h98l39 -231l41 231h101l-97 -344v-231h-96v248z" />
    <glyph glyph-name="uni0030" unicode="8" horiz-adv-x="6334" 
d="M3463 1579q-102 0 -117 98q-6 29 -6 84q0 15 -0.5 50.5t-0.5 55.5t2 47.5t7 47.5q16 78 109 82q42 0 77 -16t46 -50q8 -20 11.5 -47.5t3.5 -49t-1.5 -55t-1.5 -48.5q0 -76 -6 -105q-19 -94 -123 -94zM1421 41l9 575h92l69 -360l66 360h98l2 -575h-80l-10 240l-41 -240
h-67l-48 233l-4 -233h-86zM1833 41v575h74l96 -274v274h92v-575h-72l-100 283v-283h-90zM2132 -401q0 34 19.5 55t56.5 14q22 -1 33 -14t12.5 -25.5t1.5 -36.5h-29q0 34 -2 41q-6 15 -24 16t-27 -11q-4 -6 -6 -18.5t-2.5 -21t0 -24.5t0.5 -18t-0.5 -13.5t0 -18.5t1.5 -18
t3.5 -19.5t7.5 -14.5q6 -12 23.5 -10.5t23.5 16.5q2 7 2 45h29q0 -25 -2.5 -41.5t-15.5 -31.5t-37 -15q-17 0 -30 5.5t-20.5 17.5t-11.5 23.5t-5.5 29.5t-1.5 30t0.5 31.5t0.5 26.5zM2159 41v104h98v-104h-98zM2284 -442q0 25 0.5 36.5t3.5 30.5t10 27t20 13.5t33 2.5
q23 -1 37 -10t19.5 -27.5t6.5 -31.5t1 -36v-7v-27.5t-1.5 -26t-6 -27t-11 -20t-19 -16t-28.5 -4.5q-19 0 -32 6.5t-19.5 14t-10 24.5t-4 24.5t0 29t0.5 24.5zM2288 1583v459h98q85 0 111 -51q24 -40 18.5 -92t-41.5 -78q-6 -6 -13.5 -11t-18 -8t-17 -4.5t-20.5 -2.5t-18 -1
h-20h-18v-211h-61zM2292 244l92 4q0 -70 20 -103q16 -27 37 -18q25 6 25 47q0 21 -10.5 43.5t-22 36t-31.5 35t-26 28.5q-8 11 -29 30t-25 30q-37 60 -22 135q2 62 60 95t118 5q76 -37 76 -184l-88 -4q-2 9 -4.5 41t-9 49.5t-23.5 20.5q-30 1 -39.5 -26.5t-1.5 -47.5
q4 -12 11.5 -22.5t12.5 -16t16 -15.5t15 -14l45 -51q80 -80 68 -192q-2 -39 -28.5 -72t-71.5 -43q-43 -6 -82.5 11.5t-57.5 55.5q-24 65 -24 142zM2292 1233v287h59v-308q0 -29 1 -42.5t10 -35t28 -32.5q46 -13 65 19.5t19 82.5v146v170h63v-209q0 -10 1 -43t1 -51.5t-4 -48
t-11.5 -47t-24 -34.5t-39.5 -24q-39 -21 -89 -3.5t-67 62.5q-12 31 -12 111zM2312 -424q0 -4 -0.5 -20t-0.5 -28t1 -26.5t5.5 -24t11.5 -12.5q48 -25 51 50v30q0 3 0.5 18.5t0 25t-1.5 22.5t-5 21t-11 10q-24 11 -37.5 -0.5t-13.5 -34.5v-31zM2349 1843q51 0 68 4
q39 9 39 64q0 16 -0.5 25t-4 22t-12 21t-22.5 12q-11 4 -22 4.5t-25 -1t-21 -1.5v-150zM2372 -270v231h88v-22h-54v-80h43v-21h-43v-108h-34zM2443 -563v231h37l43 -184l37 184h33l2 -231h-23v170l-37 -170h-26l-37 170v-170h-29zM2480 -147q0 22 0.5 33.5t4 29.5t10.5 27
t21 16.5t34 7.5q12 -2 21.5 -7t15.5 -9.5t10.5 -15.5t7 -16t3.5 -19.5t1 -18v-20v-17.5q0 -17 -0.5 -26.5t-2 -25.5t-5.5 -25.5t-10.5 -19.5t-18 -14.5t-26.5 -4.5q-19 0 -32.5 7.5t-20 16.5t-10 28t-3.5 29v33v11zM2513 -141q0 -2 -1.5 -22.5t-1.5 -35t6 -30.5t19 -21
q14 -4 23.5 3t12.5 23.5t4 28t1 31.5q0 3 1 23t1 33t-4.5 27.5t-13.5 17.5q-18 12 -32.5 -2.5t-14.5 -38.5v-37zM2560 1583v459h174v-49h-113v-150h95v-49h-95v-168h117v-43h-178zM2587 1186l63 18q0 -3 2 -18t3 -20t3.5 -15.5t6 -17t8.5 -11.5q14 -16 35.5 -18t33.5 12
q20 18 20 43.5t-14 46.5q-3 4 -12 16.5t-18 21t-21 13.5q-6 6 -28.5 24.5t-37.5 33.5t-24 31q-18 29 -19 64.5t18 66.5t54 43q57 10 111 -19q39 -29 39 -98l-49 -19q-4 75 -49 82q-22 7 -38.5 -2.5t-19.5 -29.5q-3 -9 -3.5 -18.5t1.5 -17t7 -15.5t10 -14t13 -14t14.5 -13
t15.5 -12.5t14 -12.5q4 -3 23 -19.5t25 -23t18 -21t17 -28.5t7 -31q12 -53 -18.5 -95t-85.5 -42t-87.5 36t-37.5 93zM2601 330q0 17 -1.5 53.5t-1 63t4.5 49.5q14 89 84 120q80 19 127 -12q18 -11 31 -28.5t19 -33t9 -40t3.5 -37.5t0.5 -39v-12h-94q0 74 -4.5 93t-23.5 28
q-31 4 -42.5 -18t-11.5 -60v-209q0 -5 -0.5 -19t-1 -24t1 -24.5t5 -24t10.5 -18t18 -11.5q11 -2 19.5 -3.5t15 5.5t10.5 12.5t6.5 18t4 21t2 22t0.5 21.5t-0.5 18.5t-0.5 13.5h-57v86h148v-301h-74l-4 18q-27 -24 -70 -25.5t-72 19.5q-50 22 -59 117q-4 25 -4.5 50.5t1 59.5
t1.5 50zM2636 -563v231h35l41 -184l38 184h31l4 -231h-20l-4 170l-37 -170h-27l-31 170l-6 -170h-24zM2644 -270v231q7 0 21 0.5t23 1t21 -1.5t21 -6q27 -14 29 -57t-29 -54l35 -114h-35l-33 108h-24v-108h-29zM2666 709v241q4 0 20.5 0.5t25.5 0t22.5 -2.5t23 -8t15.5 -16
q7 -20 5 -48.5t-13 -39.5q-6 -4 -11.5 -7t-9.5 -4.5t-11.5 -2.5t-10.5 -1h-12.5h-12.5v-112h-31zM2673 -141q27 0 42 9t15 34q0 24 -13.5 30.5t-43.5 6.5v-80zM2697 842q29 0 33 4q18 10 18 47q0 19 -7 27.5t-15.5 10t-28.5 1.5v-90zM2785 1583v459q8 0 36 0.5t41.5 0
t35.5 -2t38.5 -6t31.5 -11.5q50 -30 51.5 -109.5t-51.5 -101.5l55 -229h-55l-66 213h-47v-213h-70zM2810 709v241h24v-215h62v-26h-86zM2824 -563v231h92v-22h-57v-70h47v-25h-47v-94h57v-20h-92zM2839 -61v22h122v-22h-45v-209h-34v209h-43zM2855 1843q40 0 63 4
q44 20 37 78q0 52 -37 62q-10 5 -20.5 6.5t-25.5 0.5t-17 -1v-150zM2873 1063v457h176v-54h-116v-149h92v-45h-92v-170h116v-39h-176zM2902 -31l154 721h90l-164 -721h-80zM2918 709v241h91v-18h-60v-86h49v-25h-49v-86h60v-26h-91zM2939 -563v231q11 0 31.5 2t34 1t24.5 -7
q26 -18 26 -58t-30 -50l35 -119h-31l-27 114h-26v-114h-37zM2976 -424q18 0 26.5 1t15.5 8t7 22q0 24 -12 31.5t-37 7.5v-70zM2976 -270v231h28v-102h66v102h33v-231h-33v108h-66v-108h-28zM3023 709l51 241h37l45 -241h-33l-12 65h-51l-6 -65h-31zM3062 793h49l-23 114z
M3062 1710l63 19q3 -60 25 -82q15 -17 38 -19t38 12q17 14 16 40.5t-16 48.5q-3 3 -11.5 13t-18.5 19.5t-22 18.5q-6 6 -39.5 36t-48.5 48q-19 32 -20.5 69t18.5 66.5t58 36.5q21 9 53 5.5t55 -18.5q32 -20 41 -96l-51 -16q-1 3 -4 16t-4.5 18.5t-5.5 16.5t-8.5 16.5
t-11.5 11.5t-15 9q-23 0 -41.5 -11t-22.5 -30q-3 -25 10.5 -48.5t28 -36t39.5 -30.5q8 -8 27 -28t28.5 -31t21 -29.5t15.5 -36.5q11 -55 -19.5 -97t-86.5 -42q-58 0 -92 36.5t-37 94.5zM3088 -401q0 34 19 55t55 14q29 -1 38 -21.5t9 -54.5h-33q0 2 1.5 10.5t1 16.5t-4.5 14
q-3 15 -20 16t-27 -11q-7 -8 -8.5 -22.5t0.5 -35.5t2 -24q0 -2 -2 -23t-0.5 -36.5t8.5 -24.5q10 -12 27 -10.5t20 16.5q4 6 4.5 13.5t-1 17.5t-1.5 14h33q0 -25 -3 -41.5t-16.5 -31.5t-39.5 -15q-24 0 -38.5 10.5t-19.5 32t-6 37.5t0.5 46t1.5 38zM3135 -270v231h91v-22h-56
v-80h45v-21h-45v-92h56v-16h-91zM3166 37v575h92q86 0 124 -43.5t38 -136.5v-215q0 -94 -35.5 -137t-113.5 -43h-105zM3170 776l35 12q0 -47 14 -53q39 -3 39 29q0 13 -9.5 26.5t-24.5 27.5t-19 20q-26 21 -32 48.5t18 51.5q25 21 63 8q33 -14 33 -59l-29 -4q-14 49 -36 47
q-14 -1 -17 -21q-9 -31 27 -63q5 -4 17.5 -12.5t18.5 -13.5t12 -14t7 -18q9 -32 -6.5 -55.5t-48.5 -23.5q-25 0 -42 19.5t-20 47.5zM3219 1245q0 15 -0.5 49t-0.5 53.5t2 46.5t6 48q26 78 112 78q100 0 119 -66q12 -26 14.5 -59t-1 -79.5t-3.5 -58.5t1.5 -36.5t0.5 -41
t-6 -32.5q-6 -44 -36.5 -67t-78.5 -23q-49 0 -83.5 25t-38.5 69q-7 36 -7 94zM3244 -563v231h33v-231h-33zM3258 127h33q27 15 27 33q4 27 4 84v155q0 57 -4 82q0 10 -8.5 21.5t-18.5 11.5h-33v-387zM3287 1204q0 -63 12 -81q7 -9 15 -13q34 -13 57 0q33 16 37 57
q2 6 2 15.5t-1 20.5t-1 14v165v11.5v12t-0.5 10.5t-1.5 11t-3 9.5t-5 9.5t-7 8q-40 24 -57 12q-19 0 -29 -8t-18 -28q-4 -20 -4 -45t2 -56.5t2 -46.5v-78zM3299 -563l49 231h35l54 -231h-31l-10 61h-50l-12 -61h-35zM3314 709v241h94v-18h-60v-86h48v-25h-48v-86h64v-26h-98
zM3326 -270v231h88v-22h-66v-80h48v-21h-48v-108h-22zM3348 -485h43l-20 112zM3408 1722v-20.5t1.5 -19.5t5 -22t10.5 -16t18 -14q9 -4 25.5 -4t25.5 4q33 18 33 62v209q0 56 -21 77q-18 25 -51 15q-17 -2 -27 -12t-16 -33q-7 -17 -8 -41t1.5 -57t2.5 -46v-82zM3430 37
l107 575h90l98 -575h-96l-18 137h-62l-20 -137h-99zM3437 -215q-2 6 -2 15.5t1 21t1 16.5v123h24v-102q0 -2 -1 -22t0 -31.5t3.5 -27.5t9.5 -24t19 -8q13 0 21 8t11 24.5t3.5 27t0 31.5t-0.5 22v102h28v-104v-16.5v-19t-1 -18.5t-2.5 -19.5t-4.5 -17t-7.5 -16t-11.5 -11.5
t-16 -9q-65 -18 -75 55zM3457 -563v231h31v-211h61v-20h-92zM3488 950h35l32 -174l37 174h29l-49 -241h-33zM3537 1063v457h43l129 -308v308h57v-457h-45l-135 309v-309h-49zM3564 256h30l-16 117zM3592 -270v231h35v-215h53v-16h-88zM3629 -332h29l35 -170l36 170h29
l-53 -231h-25zM3645 709v241h35v-241h-35zM3658 1583v459h37l129 -307v307h57v-459h-43l-129 307v-307h-51zM3705 -270v231h33v-215h57v-16h-90zM3711 776l31 12q0 -16 6.5 -32.5t17.5 -20.5q13 -2 21 5.5t8 23.5q3 13 -7 28.5t-18 22.5t-28 23q-15 14 -24 30.5t-7.5 36
t18.5 33.5q36 22 64 8q27 -14 31 -59l-29 -4q-3 29 -12.5 40t-20 5.5t-16.5 -19.5q-2 -10 -3 -16t4.5 -14t9 -12t10.5 -11l10 -10l6 -4q6 -5 8 -6.5t7.5 -6t7.5 -7l6 -7.5t6 -8.5t4 -8.5t2 -10q9 -31 -6 -55t-44 -24q-55 0 -63 67zM3738 37v575h69l99 -274v274h92v-575h-74
l-98 282v-282h-88zM3783 -563v231h94v-22h-62v-70h52v-25h-52v-94h62v-20h-94zM3836 1063v457h61v-418h111v-39h-172zM3854 709v241h35v-241h-35zM3877 -270l43 231h37l51 -231h-35l-8 57h-45l-17 -57h-26zM3901 -563v231q8 0 28.5 2t35.5 1t27 -7q26 -17 23.5 -58.5
t-32.5 -51.5l37 -117h-33l-30 114h-23v-114h-33zM3910 932v18h110v-18h-39v-223h-26v223h-45zM3920 -190h39l-21 106zM3926 1583l98 459h64l96 -459h-59l-23 109h-94l-25 -109h-57zM3934 -424q19 0 27.5 1t15 8t6.5 22q0 24 -11.5 31.5t-37.5 7.5v-70zM4018 1741h76l-35 207
zM4030 -270v231h21l65 -154v154h31v-231h-22l-62 157v-157h-33zM4030 1520h58l67 -224l70 224h64q-9 -31 -31 -96t-33 -101l-31 -90q-4 -9 -5 -20t0 -25t1 -17v-108h-63v90v70q-17 58 -33 88zM4045 -496l31 7q0 -38 18 -46q16 -7 27.5 1.5t11.5 23.5q0 30 -57 68
q-24 24 -29.5 53.5t18.5 46.5q39 27 64 8q26 -9 26 -51l-22 -14q-1 3 -2 10.5t-2 11.5t-3 9.5t-5 8.5t-7 5q-19 10 -34 -13q-3 -6 -3 -12.5t1.5 -11t6 -9.5t8 -8t10 -8t9.5 -8q3 -4 16.5 -17.5t20 -24.5t6.5 -26q11 -28 -2 -50.5t-43 -22.5q-61 0 -65 69zM4047 37v575h164
q41 0 74.5 -38t33.5 -111q0 -98 -49 -125q55 -44 55 -150q0 -72 -33.5 -111.5t-72.5 -39.5h-172zM4139 123h45q24 0 34 28t7 66q-8 70 -49 70h-37v-164zM4139 369h37q43 0 43 75q0 86 -45 86h-35v-161zM4184 -270v231q2 0 22 0.5t29.5 0t25.5 -4.5t28 -12q10 -8 13 -23
t1 -44.5t-2 -33.5q0 -6 1 -21.5t0.5 -24.5t-2.5 -21t-8 -20t-16 -13q-8 -7 -21.5 -10.5t-22.5 -4t-27.5 0t-20.5 0.5zM4190 -563v231h29v-231h-29zM4217 -254q16 0 23.5 1.5t16 10.5t13.5 27v119q-1 24 -13.5 29.5t-39.5 5.5v-193zM4231 1583v459h66v-416h114v-43h-180z
M4254 -442q0 25 0.5 36.5t4 30.5t11 27t22 13.5t35.5 2.5q12 0 21.5 -3.5t15.5 -8t10.5 -13.5t6.5 -14.5t3 -18t1 -18v-19.5v-17v-8q0 -26 -1 -40t-6.5 -34t-19.5 -29.5t-37 -9.5q-12 0 -22 2.5t-16.5 8.5t-11.5 10.5t-8 15t-5 15.5t-3 18.5t-1 17.5v19v16zM4295 -424
q0 -4 -4 -34.5t-2 -51.5t14 -25q46 -25 50 50q1 9 1 30q0 5 1 18.5t1 24.5t-1 23.5t-4.5 20.5t-10.5 10q-45 19 -45 -35v-31zM4321 1063v61h64v-61h-64zM4321 1520h64l-23 -363h-20zM4372 244v368h99v-356q0 -85 6 -113q17 -26 45 -20q21 11 25 21q2 6 2 16q6 27 6 84v368
h92v-368q0 -93 -13 -129q-14 -41 -46 -60q-52 -33 -132 -14q-36 14 -55.5 47t-21.5 72q-7 34 -7 84zM4420 -563v231h18l72 -155v155h24v-231h-22l-74 162v-162h-18zM4696 37v575h168q38 0 71 -38t33 -111q0 -45 -17 -89.5t-52 -68.5l63 -268h-94l-51 250h-27v-250h-94z
M4790 369h51q16 9 22.5 48.5t-5 76t-37.5 36.5h-31v-161zM4993 612h98l39 -231l41 231h101l-97 -344v-231h-96v248z" />
    <glyph glyph-name="uni0030" unicode="7" horiz-adv-x="6334" 
d="M3463 1579q-102 0 -117 98q-6 29 -6 84q0 15 -0.5 50.5t-0.5 55.5t2 47.5t7 47.5q16 78 109 82q42 0 77 -16t46 -50q8 -20 11.5 -47.5t3.5 -49t-1.5 -55t-1.5 -48.5q0 -76 -6 -105q-19 -94 -123 -94zM1421 41l9 575h92l69 -360l66 360h98l2 -575h-80l-10 240l-41 -240
h-67l-48 233l-4 -233h-86zM1833 41v575h74l96 -274v274h92v-575h-72l-100 283v-283h-90zM2132 -401q0 34 19.5 55t56.5 14q22 -1 33 -14t12.5 -25.5t1.5 -36.5h-29q0 34 -2 41q-6 15 -24 16t-27 -11q-4 -6 -6 -18.5t-2.5 -21t0 -24.5t0.5 -18t-0.5 -13.5t0 -18.5t1.5 -18
t3.5 -19.5t7.5 -14.5q6 -12 23.5 -10.5t23.5 16.5q2 7 2 45h29q0 -25 -2.5 -41.5t-15.5 -31.5t-37 -15q-17 0 -30 5.5t-20.5 17.5t-11.5 23.5t-5.5 29.5t-1.5 30t0.5 31.5t0.5 26.5zM2159 41v104h98v-104h-98zM2284 -442q0 25 0.5 36.5t3.5 30.5t10 27t20 13.5t33 2.5
q23 -1 37 -10t19.5 -27.5t6.5 -31.5t1 -36v-7v-27.5t-1.5 -26t-6 -27t-11 -20t-19 -16t-28.5 -4.5q-19 0 -32 6.5t-19.5 14t-10 24.5t-4 24.5t0 29t0.5 24.5zM2288 1583v459h98q85 0 111 -51q24 -40 18.5 -92t-41.5 -78q-6 -6 -13.5 -11t-18 -8t-17 -4.5t-20.5 -2.5t-18 -1
h-20h-18v-211h-61zM2292 244l92 4q0 -70 20 -103q16 -27 37 -18q25 6 25 47q0 21 -10.5 43.5t-22 36t-31.5 35t-26 28.5q-8 11 -29 30t-25 30q-37 60 -22 135q2 62 60 95t118 5q76 -37 76 -184l-88 -4q-2 9 -4.5 41t-9 49.5t-23.5 20.5q-30 1 -39.5 -26.5t-1.5 -47.5
q4 -12 11.5 -22.5t12.5 -16t16 -15.5t15 -14l45 -51q80 -80 68 -192q-2 -39 -28.5 -72t-71.5 -43q-43 -6 -82.5 11.5t-57.5 55.5q-24 65 -24 142zM2292 1233v287h59v-308q0 -29 1 -42.5t10 -35t28 -32.5q46 -13 65 19.5t19 82.5v146v170h63v-209q0 -10 1 -43t1 -51.5t-4 -48
t-11.5 -47t-24 -34.5t-39.5 -24q-39 -21 -89 -3.5t-67 62.5q-12 31 -12 111zM2312 -424q0 -4 -0.5 -20t-0.5 -28t1 -26.5t5.5 -24t11.5 -12.5q48 -25 51 50v30q0 3 0.5 18.5t0 25t-1.5 22.5t-5 21t-11 10q-24 11 -37.5 -0.5t-13.5 -34.5v-31zM2349 1843q51 0 68 4
q39 9 39 64q0 16 -0.5 25t-4 22t-12 21t-22.5 12q-11 4 -22 4.5t-25 -1t-21 -1.5v-150zM2372 -270v231h88v-22h-54v-80h43v-21h-43v-108h-34zM2443 -563v231h37l43 -184l37 184h33l2 -231h-23v170l-37 -170h-26l-37 170v-170h-29zM2480 -147q0 22 0.5 33.5t4 29.5t10.5 27
t21 16.5t34 7.5q12 -2 21.5 -7t15.5 -9.5t10.5 -15.5t7 -16t3.5 -19.5t1 -18v-20v-17.5q0 -17 -0.5 -26.5t-2 -25.5t-5.5 -25.5t-10.5 -19.5t-18 -14.5t-26.5 -4.5q-19 0 -32.5 7.5t-20 16.5t-10 28t-3.5 29v33v11zM2513 -141q0 -2 -1.5 -22.5t-1.5 -35t6 -30.5t19 -21
q14 -4 23.5 3t12.5 23.5t4 28t1 31.5q0 3 1 23t1 33t-4.5 27.5t-13.5 17.5q-18 12 -32.5 -2.5t-14.5 -38.5v-37zM2560 1583v459h174v-49h-113v-150h95v-49h-95v-168h117v-43h-178zM2587 1186l63 18q0 -3 2 -18t3 -20t3.5 -15.5t6 -17t8.5 -11.5q14 -16 35.5 -18t33.5 12
q20 18 20 43.5t-14 46.5q-3 4 -12 16.5t-18 21t-21 13.5q-6 6 -28.5 24.5t-37.5 33.5t-24 31q-18 29 -19 64.5t18 66.5t54 43q57 10 111 -19q39 -29 39 -98l-49 -19q-4 75 -49 82q-22 7 -38.5 -2.5t-19.5 -29.5q-3 -9 -3.5 -18.5t1.5 -17t7 -15.5t10 -14t13 -14t14.5 -13
t15.5 -12.5t14 -12.5q4 -3 23 -19.5t25 -23t18 -21t17 -28.5t7 -31q12 -53 -18.5 -95t-85.5 -42t-87.5 36t-37.5 93zM2601 330q0 17 -1.5 53.5t-1 63t4.5 49.5q14 89 84 120q80 19 127 -12q18 -11 31 -28.5t19 -33t9 -40t3.5 -37.5t0.5 -39v-12h-94q0 74 -4.5 93t-23.5 28
q-31 4 -42.5 -18t-11.5 -60v-209q0 -5 -0.5 -19t-1 -24t1 -24.5t5 -24t10.5 -18t18 -11.5q11 -2 19.5 -3.5t15 5.5t10.5 12.5t6.5 18t4 21t2 22t0.5 21.5t-0.5 18.5t-0.5 13.5h-57v86h148v-301h-74l-4 18q-27 -24 -70 -25.5t-72 19.5q-50 22 -59 117q-4 25 -4.5 50.5t1 59.5
t1.5 50zM2636 -563v231h35l41 -184l38 184h31l4 -231h-20l-4 170l-37 -170h-27l-31 170l-6 -170h-24zM2644 -270v231q7 0 21 0.5t23 1t21 -1.5t21 -6q27 -14 29 -57t-29 -54l35 -114h-35l-33 108h-24v-108h-29zM2666 709v241q4 0 20.5 0.5t25.5 0t22.5 -2.5t23 -8t15.5 -16
q7 -20 5 -48.5t-13 -39.5q-6 -4 -11.5 -7t-9.5 -4.5t-11.5 -2.5t-10.5 -1h-12.5h-12.5v-112h-31zM2673 -141q27 0 42 9t15 34q0 24 -13.5 30.5t-43.5 6.5v-80zM2697 842q29 0 33 4q18 10 18 47q0 19 -7 27.5t-15.5 10t-28.5 1.5v-90zM2785 1583v459q8 0 36 0.5t41.5 0
t35.5 -2t38.5 -6t31.5 -11.5q50 -30 51.5 -109.5t-51.5 -101.5l55 -229h-55l-66 213h-47v-213h-70zM2810 709v241h24v-215h62v-26h-86zM2824 -563v231h92v-22h-57v-70h47v-25h-47v-94h57v-20h-92zM2839 -61v22h122v-22h-45v-209h-34v209h-43zM2855 1843q40 0 63 4
q44 20 37 78q0 52 -37 62q-10 5 -20.5 6.5t-25.5 0.5t-17 -1v-150zM2873 1063v457h176v-54h-116v-149h92v-45h-92v-170h116v-39h-176zM2902 -31l154 721h90l-164 -721h-80zM2918 709v241h91v-18h-60v-86h49v-25h-49v-86h60v-26h-91zM2939 -563v231q11 0 31.5 2t34 1t24.5 -7
q26 -18 26 -58t-30 -50l35 -119h-31l-27 114h-26v-114h-37zM2976 -424q18 0 26.5 1t15.5 8t7 22q0 24 -12 31.5t-37 7.5v-70zM2976 -270v231h28v-102h66v102h33v-231h-33v108h-66v-108h-28zM3023 709l51 241h37l45 -241h-33l-12 65h-51l-6 -65h-31zM3062 793h49l-23 114z
M3062 1710l63 19q3 -60 25 -82q15 -17 38 -19t38 12q17 14 16 40.5t-16 48.5q-3 3 -11.5 13t-18.5 19.5t-22 18.5q-6 6 -39.5 36t-48.5 48q-19 32 -20.5 69t18.5 66.5t58 36.5q21 9 53 5.5t55 -18.5q32 -20 41 -96l-51 -16q-1 3 -4 16t-4.5 18.5t-5.5 16.5t-8.5 16.5
t-11.5 11.5t-15 9q-23 0 -41.5 -11t-22.5 -30q-3 -25 10.5 -48.5t28 -36t39.5 -30.5q8 -8 27 -28t28.5 -31t21 -29.5t15.5 -36.5q11 -55 -19.5 -97t-86.5 -42q-58 0 -92 36.5t-37 94.5zM3088 -401q0 34 19 55t55 14q29 -1 38 -21.5t9 -54.5h-33q0 2 1.5 10.5t1 16.5t-4.5 14
q-3 15 -20 16t-27 -11q-7 -8 -8.5 -22.5t0.5 -35.5t2 -24q0 -2 -2 -23t-0.5 -36.5t8.5 -24.5q10 -12 27 -10.5t20 16.5q4 6 4.5 13.5t-1 17.5t-1.5 14h33q0 -25 -3 -41.5t-16.5 -31.5t-39.5 -15q-24 0 -38.5 10.5t-19.5 32t-6 37.5t0.5 46t1.5 38zM3135 -270v231h91v-22h-56
v-80h45v-21h-45v-92h56v-16h-91zM3166 37v575h92q86 0 124 -43.5t38 -136.5v-215q0 -94 -35.5 -137t-113.5 -43h-105zM3170 776l35 12q0 -47 14 -53q39 -3 39 29q0 13 -9.5 26.5t-24.5 27.5t-19 20q-26 21 -32 48.5t18 51.5q25 21 63 8q33 -14 33 -59l-29 -4q-14 49 -36 47
q-14 -1 -17 -21q-9 -31 27 -63q5 -4 17.5 -12.5t18.5 -13.5t12 -14t7 -18q9 -32 -6.5 -55.5t-48.5 -23.5q-25 0 -42 19.5t-20 47.5zM3219 1245q0 15 -0.5 49t-0.5 53.5t2 46.5t6 48q26 78 112 78q100 0 119 -66q12 -26 14.5 -59t-1 -79.5t-3.5 -58.5t1.5 -36.5t0.5 -41
t-6 -32.5q-6 -44 -36.5 -67t-78.5 -23q-49 0 -83.5 25t-38.5 69q-7 36 -7 94zM3244 -563v231h33v-231h-33zM3258 127h33q27 15 27 33q4 27 4 84v155q0 57 -4 82q0 10 -8.5 21.5t-18.5 11.5h-33v-387zM3287 1204q0 -63 12 -81q7 -9 15 -13q34 -13 57 0q33 16 37 57
q2 6 2 15.5t-1 20.5t-1 14v165v11.5v12t-0.5 10.5t-1.5 11t-3 9.5t-5 9.5t-7 8q-40 24 -57 12q-19 0 -29 -8t-18 -28q-4 -20 -4 -45t2 -56.5t2 -46.5v-78zM3299 -563l49 231h35l54 -231h-31l-10 61h-50l-12 -61h-35zM3314 709v241h94v-18h-60v-86h48v-25h-48v-86h64v-26h-98
zM3326 -270v231h88v-22h-66v-80h48v-21h-48v-108h-22zM3348 -485h43l-20 112zM3408 1722v-20.5t1.5 -19.5t5 -22t10.5 -16t18 -14q9 -4 25.5 -4t25.5 4q33 18 33 62v209q0 56 -21 77q-18 25 -51 15q-17 -2 -27 -12t-16 -33q-7 -17 -8 -41t1.5 -57t2.5 -46v-82zM3430 37
l107 575h90l98 -575h-96l-18 137h-62l-20 -137h-99zM3437 -215q-2 6 -2 15.5t1 21t1 16.5v123h24v-102q0 -2 -1 -22t0 -31.5t3.5 -27.5t9.5 -24t19 -8q13 0 21 8t11 24.5t3.5 27t0 31.5t-0.5 22v102h28v-104v-16.5v-19t-1 -18.5t-2.5 -19.5t-4.5 -17t-7.5 -16t-11.5 -11.5
t-16 -9q-65 -18 -75 55zM3457 -563v231h31v-211h61v-20h-92zM3488 950h35l32 -174l37 174h29l-49 -241h-33zM3537 1063v457h43l129 -308v308h57v-457h-45l-135 309v-309h-49zM3564 256h30l-16 117zM3592 -270v231h35v-215h53v-16h-88zM3629 -332h29l35 -170l36 170h29
l-53 -231h-25zM3645 709v241h35v-241h-35zM3658 1583v459h37l129 -307v307h57v-459h-43l-129 307v-307h-51zM3705 -270v231h33v-215h57v-16h-90zM3711 776l31 12q0 -16 6.5 -32.5t17.5 -20.5q13 -2 21 5.5t8 23.5q3 13 -7 28.5t-18 22.5t-28 23q-15 14 -24 30.5t-7.5 36
t18.5 33.5q36 22 64 8q27 -14 31 -59l-29 -4q-3 29 -12.5 40t-20 5.5t-16.5 -19.5q-2 -10 -3 -16t4.5 -14t9 -12t10.5 -11l10 -10l6 -4q6 -5 8 -6.5t7.5 -6t7.5 -7l6 -7.5t6 -8.5t4 -8.5t2 -10q9 -31 -6 -55t-44 -24q-55 0 -63 67zM3738 37v575h69l99 -274v274h92v-575h-74
l-98 282v-282h-88zM3783 -563v231h94v-22h-62v-70h52v-25h-52v-94h62v-20h-94zM3836 1063v457h61v-418h111v-39h-172zM3854 709v241h35v-241h-35zM3877 -270l43 231h37l51 -231h-35l-8 57h-45l-17 -57h-26zM3901 -563v231q8 0 28.5 2t35.5 1t27 -7q26 -17 23.5 -58.5
t-32.5 -51.5l37 -117h-33l-30 114h-23v-114h-33zM3910 932v18h110v-18h-39v-223h-26v223h-45zM3920 -190h39l-21 106zM3926 1583l98 459h64l96 -459h-59l-23 109h-94l-25 -109h-57zM3934 -424q19 0 27.5 1t15 8t6.5 22q0 24 -11.5 31.5t-37.5 7.5v-70zM4018 1741h76l-35 207
zM4030 -270v231h21l65 -154v154h31v-231h-22l-62 157v-157h-33zM4030 1520h58l67 -224l70 224h64q-9 -31 -31 -96t-33 -101l-31 -90q-4 -9 -5 -20t0 -25t1 -17v-108h-63v90v70q-17 58 -33 88zM4045 -496l31 7q0 -38 18 -46q16 -7 27.5 1.5t11.5 23.5q0 30 -57 68
q-24 24 -29.5 53.5t18.5 46.5q39 27 64 8q26 -9 26 -51l-22 -14q-1 3 -2 10.5t-2 11.5t-3 9.5t-5 8.5t-7 5q-19 10 -34 -13q-3 -6 -3 -12.5t1.5 -11t6 -9.5t8 -8t10 -8t9.5 -8q3 -4 16.5 -17.5t20 -24.5t6.5 -26q11 -28 -2 -50.5t-43 -22.5q-61 0 -65 69zM4047 37v575h164
q41 0 74.5 -38t33.5 -111q0 -98 -49 -125q55 -44 55 -150q0 -72 -33.5 -111.5t-72.5 -39.5h-172zM4139 123h45q24 0 34 28t7 66q-8 70 -49 70h-37v-164zM4139 369h37q43 0 43 75q0 86 -45 86h-35v-161zM4184 -270v231q2 0 22 0.5t29.5 0t25.5 -4.5t28 -12q10 -8 13 -23
t1 -44.5t-2 -33.5q0 -6 1 -21.5t0.5 -24.5t-2.5 -21t-8 -20t-16 -13q-8 -7 -21.5 -10.5t-22.5 -4t-27.5 0t-20.5 0.5zM4190 -563v231h29v-231h-29zM4217 -254q16 0 23.5 1.5t16 10.5t13.5 27v119q-1 24 -13.5 29.5t-39.5 5.5v-193zM4231 1583v459h66v-416h114v-43h-180z
M4254 -442q0 25 0.5 36.5t4 30.5t11 27t22 13.5t35.5 2.5q12 0 21.5 -3.5t15.5 -8t10.5 -13.5t6.5 -14.5t3 -18t1 -18v-19.5v-17v-8q0 -26 -1 -40t-6.5 -34t-19.5 -29.5t-37 -9.5q-12 0 -22 2.5t-16.5 8.5t-11.5 10.5t-8 15t-5 15.5t-3 18.5t-1 17.5v19v16zM4295 -424
q0 -4 -4 -34.5t-2 -51.5t14 -25q46 -25 50 50q1 9 1 30q0 5 1 18.5t1 24.5t-1 23.5t-4.5 20.5t-10.5 10q-45 19 -45 -35v-31zM4321 1063v61h64v-61h-64zM4321 1520h64l-23 -363h-20zM4372 244v368h99v-356q0 -85 6 -113q17 -26 45 -20q21 11 25 21q2 6 2 16q6 27 6 84v368
h92v-368q0 -93 -13 -129q-14 -41 -46 -60q-52 -33 -132 -14q-36 14 -55.5 47t-21.5 72q-7 34 -7 84zM4420 -563v231h18l72 -155v155h24v-231h-22l-74 162v-162h-18zM4696 37v575h168q38 0 71 -38t33 -111q0 -45 -17 -89.5t-52 -68.5l63 -268h-94l-51 250h-27v-250h-94z
M4790 369h51q16 9 22.5 48.5t-5 76t-37.5 36.5h-31v-161zM4993 612h98l39 -231l41 231h101l-97 -344v-231h-96v248z" />
    <glyph glyph-name="uni0030" unicode="6" horiz-adv-x="6334" 
d="M3463 1579q-102 0 -117 98q-6 29 -6 84q0 15 -0.5 50.5t-0.5 55.5t2 47.5t7 47.5q16 78 109 82q42 0 77 -16t46 -50q8 -20 11.5 -47.5t3.5 -49t-1.5 -55t-1.5 -48.5q0 -76 -6 -105q-19 -94 -123 -94zM1421 41l9 575h92l69 -360l66 360h98l2 -575h-80l-10 240l-41 -240
h-67l-48 233l-4 -233h-86zM1833 41v575h74l96 -274v274h92v-575h-72l-100 283v-283h-90zM2132 -401q0 34 19.5 55t56.5 14q22 -1 33 -14t12.5 -25.5t1.5 -36.5h-29q0 34 -2 41q-6 15 -24 16t-27 -11q-4 -6 -6 -18.5t-2.5 -21t0 -24.5t0.5 -18t-0.5 -13.5t0 -18.5t1.5 -18
t3.5 -19.5t7.5 -14.5q6 -12 23.5 -10.5t23.5 16.5q2 7 2 45h29q0 -25 -2.5 -41.5t-15.5 -31.5t-37 -15q-17 0 -30 5.5t-20.5 17.5t-11.5 23.5t-5.5 29.5t-1.5 30t0.5 31.5t0.5 26.5zM2159 41v104h98v-104h-98zM2284 -442q0 25 0.5 36.5t3.5 30.5t10 27t20 13.5t33 2.5
q23 -1 37 -10t19.5 -27.5t6.5 -31.5t1 -36v-7v-27.5t-1.5 -26t-6 -27t-11 -20t-19 -16t-28.5 -4.5q-19 0 -32 6.5t-19.5 14t-10 24.5t-4 24.5t0 29t0.5 24.5zM2288 1583v459h98q85 0 111 -51q24 -40 18.5 -92t-41.5 -78q-6 -6 -13.5 -11t-18 -8t-17 -4.5t-20.5 -2.5t-18 -1
h-20h-18v-211h-61zM2292 244l92 4q0 -70 20 -103q16 -27 37 -18q25 6 25 47q0 21 -10.5 43.5t-22 36t-31.5 35t-26 28.5q-8 11 -29 30t-25 30q-37 60 -22 135q2 62 60 95t118 5q76 -37 76 -184l-88 -4q-2 9 -4.5 41t-9 49.5t-23.5 20.5q-30 1 -39.5 -26.5t-1.5 -47.5
q4 -12 11.5 -22.5t12.5 -16t16 -15.5t15 -14l45 -51q80 -80 68 -192q-2 -39 -28.5 -72t-71.5 -43q-43 -6 -82.5 11.5t-57.5 55.5q-24 65 -24 142zM2292 1233v287h59v-308q0 -29 1 -42.5t10 -35t28 -32.5q46 -13 65 19.5t19 82.5v146v170h63v-209q0 -10 1 -43t1 -51.5t-4 -48
t-11.5 -47t-24 -34.5t-39.5 -24q-39 -21 -89 -3.5t-67 62.5q-12 31 -12 111zM2312 -424q0 -4 -0.5 -20t-0.5 -28t1 -26.5t5.5 -24t11.5 -12.5q48 -25 51 50v30q0 3 0.5 18.5t0 25t-1.5 22.5t-5 21t-11 10q-24 11 -37.5 -0.5t-13.5 -34.5v-31zM2349 1843q51 0 68 4
q39 9 39 64q0 16 -0.5 25t-4 22t-12 21t-22.5 12q-11 4 -22 4.5t-25 -1t-21 -1.5v-150zM2372 -270v231h88v-22h-54v-80h43v-21h-43v-108h-34zM2443 -563v231h37l43 -184l37 184h33l2 -231h-23v170l-37 -170h-26l-37 170v-170h-29zM2480 -147q0 22 0.5 33.5t4 29.5t10.5 27
t21 16.5t34 7.5q12 -2 21.5 -7t15.5 -9.5t10.5 -15.5t7 -16t3.5 -19.5t1 -18v-20v-17.5q0 -17 -0.5 -26.5t-2 -25.5t-5.5 -25.5t-10.5 -19.5t-18 -14.5t-26.5 -4.5q-19 0 -32.5 7.5t-20 16.5t-10 28t-3.5 29v33v11zM2513 -141q0 -2 -1.5 -22.5t-1.5 -35t6 -30.5t19 -21
q14 -4 23.5 3t12.5 23.5t4 28t1 31.5q0 3 1 23t1 33t-4.5 27.5t-13.5 17.5q-18 12 -32.5 -2.5t-14.5 -38.5v-37zM2560 1583v459h174v-49h-113v-150h95v-49h-95v-168h117v-43h-178zM2587 1186l63 18q0 -3 2 -18t3 -20t3.5 -15.5t6 -17t8.5 -11.5q14 -16 35.5 -18t33.5 12
q20 18 20 43.5t-14 46.5q-3 4 -12 16.5t-18 21t-21 13.5q-6 6 -28.5 24.5t-37.5 33.5t-24 31q-18 29 -19 64.5t18 66.5t54 43q57 10 111 -19q39 -29 39 -98l-49 -19q-4 75 -49 82q-22 7 -38.5 -2.5t-19.5 -29.5q-3 -9 -3.5 -18.5t1.5 -17t7 -15.5t10 -14t13 -14t14.5 -13
t15.5 -12.5t14 -12.5q4 -3 23 -19.5t25 -23t18 -21t17 -28.5t7 -31q12 -53 -18.5 -95t-85.5 -42t-87.5 36t-37.5 93zM2601 330q0 17 -1.5 53.5t-1 63t4.5 49.5q14 89 84 120q80 19 127 -12q18 -11 31 -28.5t19 -33t9 -40t3.5 -37.5t0.5 -39v-12h-94q0 74 -4.5 93t-23.5 28
q-31 4 -42.5 -18t-11.5 -60v-209q0 -5 -0.5 -19t-1 -24t1 -24.5t5 -24t10.5 -18t18 -11.5q11 -2 19.5 -3.5t15 5.5t10.5 12.5t6.5 18t4 21t2 22t0.5 21.5t-0.5 18.5t-0.5 13.5h-57v86h148v-301h-74l-4 18q-27 -24 -70 -25.5t-72 19.5q-50 22 -59 117q-4 25 -4.5 50.5t1 59.5
t1.5 50zM2636 -563v231h35l41 -184l38 184h31l4 -231h-20l-4 170l-37 -170h-27l-31 170l-6 -170h-24zM2644 -270v231q7 0 21 0.5t23 1t21 -1.5t21 -6q27 -14 29 -57t-29 -54l35 -114h-35l-33 108h-24v-108h-29zM2666 709v241q4 0 20.5 0.5t25.5 0t22.5 -2.5t23 -8t15.5 -16
q7 -20 5 -48.5t-13 -39.5q-6 -4 -11.5 -7t-9.5 -4.5t-11.5 -2.5t-10.5 -1h-12.5h-12.5v-112h-31zM2673 -141q27 0 42 9t15 34q0 24 -13.5 30.5t-43.5 6.5v-80zM2697 842q29 0 33 4q18 10 18 47q0 19 -7 27.5t-15.5 10t-28.5 1.5v-90zM2785 1583v459q8 0 36 0.5t41.5 0
t35.5 -2t38.5 -6t31.5 -11.5q50 -30 51.5 -109.5t-51.5 -101.5l55 -229h-55l-66 213h-47v-213h-70zM2810 709v241h24v-215h62v-26h-86zM2824 -563v231h92v-22h-57v-70h47v-25h-47v-94h57v-20h-92zM2839 -61v22h122v-22h-45v-209h-34v209h-43zM2855 1843q40 0 63 4
q44 20 37 78q0 52 -37 62q-10 5 -20.5 6.5t-25.5 0.5t-17 -1v-150zM2873 1063v457h176v-54h-116v-149h92v-45h-92v-170h116v-39h-176zM2902 -31l154 721h90l-164 -721h-80zM2918 709v241h91v-18h-60v-86h49v-25h-49v-86h60v-26h-91zM2939 -563v231q11 0 31.5 2t34 1t24.5 -7
q26 -18 26 -58t-30 -50l35 -119h-31l-27 114h-26v-114h-37zM2976 -424q18 0 26.5 1t15.5 8t7 22q0 24 -12 31.5t-37 7.5v-70zM2976 -270v231h28v-102h66v102h33v-231h-33v108h-66v-108h-28zM3023 709l51 241h37l45 -241h-33l-12 65h-51l-6 -65h-31zM3062 793h49l-23 114z
M3062 1710l63 19q3 -60 25 -82q15 -17 38 -19t38 12q17 14 16 40.5t-16 48.5q-3 3 -11.5 13t-18.5 19.5t-22 18.5q-6 6 -39.5 36t-48.5 48q-19 32 -20.5 69t18.5 66.5t58 36.5q21 9 53 5.5t55 -18.5q32 -20 41 -96l-51 -16q-1 3 -4 16t-4.5 18.5t-5.5 16.5t-8.5 16.5
t-11.5 11.5t-15 9q-23 0 -41.5 -11t-22.5 -30q-3 -25 10.5 -48.5t28 -36t39.5 -30.5q8 -8 27 -28t28.5 -31t21 -29.5t15.5 -36.5q11 -55 -19.5 -97t-86.5 -42q-58 0 -92 36.5t-37 94.5zM3088 -401q0 34 19 55t55 14q29 -1 38 -21.5t9 -54.5h-33q0 2 1.5 10.5t1 16.5t-4.5 14
q-3 15 -20 16t-27 -11q-7 -8 -8.5 -22.5t0.5 -35.5t2 -24q0 -2 -2 -23t-0.5 -36.5t8.5 -24.5q10 -12 27 -10.5t20 16.5q4 6 4.5 13.5t-1 17.5t-1.5 14h33q0 -25 -3 -41.5t-16.5 -31.5t-39.5 -15q-24 0 -38.5 10.5t-19.5 32t-6 37.5t0.5 46t1.5 38zM3135 -270v231h91v-22h-56
v-80h45v-21h-45v-92h56v-16h-91zM3166 37v575h92q86 0 124 -43.5t38 -136.5v-215q0 -94 -35.5 -137t-113.5 -43h-105zM3170 776l35 12q0 -47 14 -53q39 -3 39 29q0 13 -9.5 26.5t-24.5 27.5t-19 20q-26 21 -32 48.5t18 51.5q25 21 63 8q33 -14 33 -59l-29 -4q-14 49 -36 47
q-14 -1 -17 -21q-9 -31 27 -63q5 -4 17.5 -12.5t18.5 -13.5t12 -14t7 -18q9 -32 -6.5 -55.5t-48.5 -23.5q-25 0 -42 19.5t-20 47.5zM3219 1245q0 15 -0.5 49t-0.5 53.5t2 46.5t6 48q26 78 112 78q100 0 119 -66q12 -26 14.5 -59t-1 -79.5t-3.5 -58.5t1.5 -36.5t0.5 -41
t-6 -32.5q-6 -44 -36.5 -67t-78.5 -23q-49 0 -83.5 25t-38.5 69q-7 36 -7 94zM3244 -563v231h33v-231h-33zM3258 127h33q27 15 27 33q4 27 4 84v155q0 57 -4 82q0 10 -8.5 21.5t-18.5 11.5h-33v-387zM3287 1204q0 -63 12 -81q7 -9 15 -13q34 -13 57 0q33 16 37 57
q2 6 2 15.5t-1 20.5t-1 14v165v11.5v12t-0.5 10.5t-1.5 11t-3 9.5t-5 9.5t-7 8q-40 24 -57 12q-19 0 -29 -8t-18 -28q-4 -20 -4 -45t2 -56.5t2 -46.5v-78zM3299 -563l49 231h35l54 -231h-31l-10 61h-50l-12 -61h-35zM3314 709v241h94v-18h-60v-86h48v-25h-48v-86h64v-26h-98
zM3326 -270v231h88v-22h-66v-80h48v-21h-48v-108h-22zM3348 -485h43l-20 112zM3408 1722v-20.5t1.5 -19.5t5 -22t10.5 -16t18 -14q9 -4 25.5 -4t25.5 4q33 18 33 62v209q0 56 -21 77q-18 25 -51 15q-17 -2 -27 -12t-16 -33q-7 -17 -8 -41t1.5 -57t2.5 -46v-82zM3430 37
l107 575h90l98 -575h-96l-18 137h-62l-20 -137h-99zM3437 -215q-2 6 -2 15.5t1 21t1 16.5v123h24v-102q0 -2 -1 -22t0 -31.5t3.5 -27.5t9.5 -24t19 -8q13 0 21 8t11 24.5t3.5 27t0 31.5t-0.5 22v102h28v-104v-16.5v-19t-1 -18.5t-2.5 -19.5t-4.5 -17t-7.5 -16t-11.5 -11.5
t-16 -9q-65 -18 -75 55zM3457 -563v231h31v-211h61v-20h-92zM3488 950h35l32 -174l37 174h29l-49 -241h-33zM3537 1063v457h43l129 -308v308h57v-457h-45l-135 309v-309h-49zM3564 256h30l-16 117zM3592 -270v231h35v-215h53v-16h-88zM3629 -332h29l35 -170l36 170h29
l-53 -231h-25zM3645 709v241h35v-241h-35zM3658 1583v459h37l129 -307v307h57v-459h-43l-129 307v-307h-51zM3705 -270v231h33v-215h57v-16h-90zM3711 776l31 12q0 -16 6.5 -32.5t17.5 -20.5q13 -2 21 5.5t8 23.5q3 13 -7 28.5t-18 22.5t-28 23q-15 14 -24 30.5t-7.5 36
t18.5 33.5q36 22 64 8q27 -14 31 -59l-29 -4q-3 29 -12.5 40t-20 5.5t-16.5 -19.5q-2 -10 -3 -16t4.5 -14t9 -12t10.5 -11l10 -10l6 -4q6 -5 8 -6.5t7.5 -6t7.5 -7l6 -7.5t6 -8.5t4 -8.5t2 -10q9 -31 -6 -55t-44 -24q-55 0 -63 67zM3738 37v575h69l99 -274v274h92v-575h-74
l-98 282v-282h-88zM3783 -563v231h94v-22h-62v-70h52v-25h-52v-94h62v-20h-94zM3836 1063v457h61v-418h111v-39h-172zM3854 709v241h35v-241h-35zM3877 -270l43 231h37l51 -231h-35l-8 57h-45l-17 -57h-26zM3901 -563v231q8 0 28.5 2t35.5 1t27 -7q26 -17 23.5 -58.5
t-32.5 -51.5l37 -117h-33l-30 114h-23v-114h-33zM3910 932v18h110v-18h-39v-223h-26v223h-45zM3920 -190h39l-21 106zM3926 1583l98 459h64l96 -459h-59l-23 109h-94l-25 -109h-57zM3934 -424q19 0 27.5 1t15 8t6.5 22q0 24 -11.5 31.5t-37.5 7.5v-70zM4018 1741h76l-35 207
zM4030 -270v231h21l65 -154v154h31v-231h-22l-62 157v-157h-33zM4030 1520h58l67 -224l70 224h64q-9 -31 -31 -96t-33 -101l-31 -90q-4 -9 -5 -20t0 -25t1 -17v-108h-63v90v70q-17 58 -33 88zM4045 -496l31 7q0 -38 18 -46q16 -7 27.5 1.5t11.5 23.5q0 30 -57 68
q-24 24 -29.5 53.5t18.5 46.5q39 27 64 8q26 -9 26 -51l-22 -14q-1 3 -2 10.5t-2 11.5t-3 9.5t-5 8.5t-7 5q-19 10 -34 -13q-3 -6 -3 -12.5t1.5 -11t6 -9.5t8 -8t10 -8t9.5 -8q3 -4 16.5 -17.5t20 -24.5t6.5 -26q11 -28 -2 -50.5t-43 -22.5q-61 0 -65 69zM4047 37v575h164
q41 0 74.5 -38t33.5 -111q0 -98 -49 -125q55 -44 55 -150q0 -72 -33.5 -111.5t-72.5 -39.5h-172zM4139 123h45q24 0 34 28t7 66q-8 70 -49 70h-37v-164zM4139 369h37q43 0 43 75q0 86 -45 86h-35v-161zM4184 -270v231q2 0 22 0.5t29.5 0t25.5 -4.5t28 -12q10 -8 13 -23
t1 -44.5t-2 -33.5q0 -6 1 -21.5t0.5 -24.5t-2.5 -21t-8 -20t-16 -13q-8 -7 -21.5 -10.5t-22.5 -4t-27.5 0t-20.5 0.5zM4190 -563v231h29v-231h-29zM4217 -254q16 0 23.5 1.5t16 10.5t13.5 27v119q-1 24 -13.5 29.5t-39.5 5.5v-193zM4231 1583v459h66v-416h114v-43h-180z
M4254 -442q0 25 0.5 36.5t4 30.5t11 27t22 13.5t35.5 2.5q12 0 21.5 -3.5t15.5 -8t10.5 -13.5t6.5 -14.5t3 -18t1 -18v-19.5v-17v-8q0 -26 -1 -40t-6.5 -34t-19.5 -29.5t-37 -9.5q-12 0 -22 2.5t-16.5 8.5t-11.5 10.5t-8 15t-5 15.5t-3 18.5t-1 17.5v19v16zM4295 -424
q0 -4 -4 -34.5t-2 -51.5t14 -25q46 -25 50 50q1 9 1 30q0 5 1 18.5t1 24.5t-1 23.5t-4.5 20.5t-10.5 10q-45 19 -45 -35v-31zM4321 1063v61h64v-61h-64zM4321 1520h64l-23 -363h-20zM4372 244v368h99v-356q0 -85 6 -113q17 -26 45 -20q21 11 25 21q2 6 2 16q6 27 6 84v368
h92v-368q0 -93 -13 -129q-14 -41 -46 -60q-52 -33 -132 -14q-36 14 -55.5 47t-21.5 72q-7 34 -7 84zM4420 -563v231h18l72 -155v155h24v-231h-22l-74 162v-162h-18zM4696 37v575h168q38 0 71 -38t33 -111q0 -45 -17 -89.5t-52 -68.5l63 -268h-94l-51 250h-27v-250h-94z
M4790 369h51q16 9 22.5 48.5t-5 76t-37.5 36.5h-31v-161zM4993 612h98l39 -231l41 231h101l-97 -344v-231h-96v248z" />
    <glyph glyph-name="uni0030" unicode="5" horiz-adv-x="6334" 
d="M3463 1579q-102 0 -117 98q-6 29 -6 84q0 15 -0.5 50.5t-0.5 55.5t2 47.5t7 47.5q16 78 109 82q42 0 77 -16t46 -50q8 -20 11.5 -47.5t3.5 -49t-1.5 -55t-1.5 -48.5q0 -76 -6 -105q-19 -94 -123 -94zM1421 41l9 575h92l69 -360l66 360h98l2 -575h-80l-10 240l-41 -240
h-67l-48 233l-4 -233h-86zM1833 41v575h74l96 -274v274h92v-575h-72l-100 283v-283h-90zM2132 -401q0 34 19.5 55t56.5 14q22 -1 33 -14t12.5 -25.5t1.5 -36.5h-29q0 34 -2 41q-6 15 -24 16t-27 -11q-4 -6 -6 -18.5t-2.5 -21t0 -24.5t0.5 -18t-0.5 -13.5t0 -18.5t1.5 -18
t3.5 -19.5t7.5 -14.5q6 -12 23.5 -10.5t23.5 16.5q2 7 2 45h29q0 -25 -2.5 -41.5t-15.5 -31.5t-37 -15q-17 0 -30 5.5t-20.5 17.5t-11.5 23.5t-5.5 29.5t-1.5 30t0.5 31.5t0.5 26.5zM2159 41v104h98v-104h-98zM2284 -442q0 25 0.5 36.5t3.5 30.5t10 27t20 13.5t33 2.5
q23 -1 37 -10t19.5 -27.5t6.5 -31.5t1 -36v-7v-27.5t-1.5 -26t-6 -27t-11 -20t-19 -16t-28.5 -4.5q-19 0 -32 6.5t-19.5 14t-10 24.5t-4 24.5t0 29t0.5 24.5zM2288 1583v459h98q85 0 111 -51q24 -40 18.5 -92t-41.5 -78q-6 -6 -13.5 -11t-18 -8t-17 -4.5t-20.5 -2.5t-18 -1
h-20h-18v-211h-61zM2292 244l92 4q0 -70 20 -103q16 -27 37 -18q25 6 25 47q0 21 -10.5 43.5t-22 36t-31.5 35t-26 28.5q-8 11 -29 30t-25 30q-37 60 -22 135q2 62 60 95t118 5q76 -37 76 -184l-88 -4q-2 9 -4.5 41t-9 49.5t-23.5 20.5q-30 1 -39.5 -26.5t-1.5 -47.5
q4 -12 11.5 -22.5t12.5 -16t16 -15.5t15 -14l45 -51q80 -80 68 -192q-2 -39 -28.5 -72t-71.5 -43q-43 -6 -82.5 11.5t-57.5 55.5q-24 65 -24 142zM2292 1233v287h59v-308q0 -29 1 -42.5t10 -35t28 -32.5q46 -13 65 19.5t19 82.5v146v170h63v-209q0 -10 1 -43t1 -51.5t-4 -48
t-11.5 -47t-24 -34.5t-39.5 -24q-39 -21 -89 -3.5t-67 62.5q-12 31 -12 111zM2312 -424q0 -4 -0.5 -20t-0.5 -28t1 -26.5t5.5 -24t11.5 -12.5q48 -25 51 50v30q0 3 0.5 18.5t0 25t-1.5 22.5t-5 21t-11 10q-24 11 -37.5 -0.5t-13.5 -34.5v-31zM2349 1843q51 0 68 4
q39 9 39 64q0 16 -0.5 25t-4 22t-12 21t-22.5 12q-11 4 -22 4.5t-25 -1t-21 -1.5v-150zM2372 -270v231h88v-22h-54v-80h43v-21h-43v-108h-34zM2443 -563v231h37l43 -184l37 184h33l2 -231h-23v170l-37 -170h-26l-37 170v-170h-29zM2480 -147q0 22 0.5 33.5t4 29.5t10.5 27
t21 16.5t34 7.5q12 -2 21.5 -7t15.5 -9.5t10.5 -15.5t7 -16t3.5 -19.5t1 -18v-20v-17.5q0 -17 -0.5 -26.5t-2 -25.5t-5.5 -25.5t-10.5 -19.5t-18 -14.5t-26.5 -4.5q-19 0 -32.5 7.5t-20 16.5t-10 28t-3.5 29v33v11zM2513 -141q0 -2 -1.5 -22.5t-1.5 -35t6 -30.5t19 -21
q14 -4 23.5 3t12.5 23.5t4 28t1 31.5q0 3 1 23t1 33t-4.5 27.5t-13.5 17.5q-18 12 -32.5 -2.5t-14.5 -38.5v-37zM2560 1583v459h174v-49h-113v-150h95v-49h-95v-168h117v-43h-178zM2587 1186l63 18q0 -3 2 -18t3 -20t3.5 -15.5t6 -17t8.5 -11.5q14 -16 35.5 -18t33.5 12
q20 18 20 43.5t-14 46.5q-3 4 -12 16.5t-18 21t-21 13.5q-6 6 -28.5 24.5t-37.5 33.5t-24 31q-18 29 -19 64.5t18 66.5t54 43q57 10 111 -19q39 -29 39 -98l-49 -19q-4 75 -49 82q-22 7 -38.5 -2.5t-19.5 -29.5q-3 -9 -3.5 -18.5t1.5 -17t7 -15.5t10 -14t13 -14t14.5 -13
t15.5 -12.5t14 -12.5q4 -3 23 -19.5t25 -23t18 -21t17 -28.5t7 -31q12 -53 -18.5 -95t-85.5 -42t-87.5 36t-37.5 93zM2601 330q0 17 -1.5 53.5t-1 63t4.5 49.5q14 89 84 120q80 19 127 -12q18 -11 31 -28.5t19 -33t9 -40t3.5 -37.5t0.5 -39v-12h-94q0 74 -4.5 93t-23.5 28
q-31 4 -42.5 -18t-11.5 -60v-209q0 -5 -0.5 -19t-1 -24t1 -24.5t5 -24t10.5 -18t18 -11.5q11 -2 19.5 -3.5t15 5.5t10.5 12.5t6.5 18t4 21t2 22t0.5 21.5t-0.5 18.5t-0.5 13.5h-57v86h148v-301h-74l-4 18q-27 -24 -70 -25.5t-72 19.5q-50 22 -59 117q-4 25 -4.5 50.5t1 59.5
t1.5 50zM2636 -563v231h35l41 -184l38 184h31l4 -231h-20l-4 170l-37 -170h-27l-31 170l-6 -170h-24zM2644 -270v231q7 0 21 0.5t23 1t21 -1.5t21 -6q27 -14 29 -57t-29 -54l35 -114h-35l-33 108h-24v-108h-29zM2666 709v241q4 0 20.5 0.5t25.5 0t22.5 -2.5t23 -8t15.5 -16
q7 -20 5 -48.5t-13 -39.5q-6 -4 -11.5 -7t-9.5 -4.5t-11.5 -2.5t-10.5 -1h-12.5h-12.5v-112h-31zM2673 -141q27 0 42 9t15 34q0 24 -13.5 30.5t-43.5 6.5v-80zM2697 842q29 0 33 4q18 10 18 47q0 19 -7 27.5t-15.5 10t-28.5 1.5v-90zM2785 1583v459q8 0 36 0.5t41.5 0
t35.5 -2t38.5 -6t31.5 -11.5q50 -30 51.5 -109.5t-51.5 -101.5l55 -229h-55l-66 213h-47v-213h-70zM2810 709v241h24v-215h62v-26h-86zM2824 -563v231h92v-22h-57v-70h47v-25h-47v-94h57v-20h-92zM2839 -61v22h122v-22h-45v-209h-34v209h-43zM2855 1843q40 0 63 4
q44 20 37 78q0 52 -37 62q-10 5 -20.5 6.5t-25.5 0.5t-17 -1v-150zM2873 1063v457h176v-54h-116v-149h92v-45h-92v-170h116v-39h-176zM2902 -31l154 721h90l-164 -721h-80zM2918 709v241h91v-18h-60v-86h49v-25h-49v-86h60v-26h-91zM2939 -563v231q11 0 31.5 2t34 1t24.5 -7
q26 -18 26 -58t-30 -50l35 -119h-31l-27 114h-26v-114h-37zM2976 -424q18 0 26.5 1t15.5 8t7 22q0 24 -12 31.5t-37 7.5v-70zM2976 -270v231h28v-102h66v102h33v-231h-33v108h-66v-108h-28zM3023 709l51 241h37l45 -241h-33l-12 65h-51l-6 -65h-31zM3062 793h49l-23 114z
M3062 1710l63 19q3 -60 25 -82q15 -17 38 -19t38 12q17 14 16 40.5t-16 48.5q-3 3 -11.5 13t-18.5 19.5t-22 18.5q-6 6 -39.5 36t-48.5 48q-19 32 -20.5 69t18.5 66.5t58 36.5q21 9 53 5.5t55 -18.5q32 -20 41 -96l-51 -16q-1 3 -4 16t-4.5 18.5t-5.5 16.5t-8.5 16.5
t-11.5 11.5t-15 9q-23 0 -41.5 -11t-22.5 -30q-3 -25 10.5 -48.5t28 -36t39.5 -30.5q8 -8 27 -28t28.5 -31t21 -29.5t15.5 -36.5q11 -55 -19.5 -97t-86.5 -42q-58 0 -92 36.5t-37 94.5zM3088 -401q0 34 19 55t55 14q29 -1 38 -21.5t9 -54.5h-33q0 2 1.5 10.5t1 16.5t-4.5 14
q-3 15 -20 16t-27 -11q-7 -8 -8.5 -22.5t0.5 -35.5t2 -24q0 -2 -2 -23t-0.5 -36.5t8.5 -24.5q10 -12 27 -10.5t20 16.5q4 6 4.5 13.5t-1 17.5t-1.5 14h33q0 -25 -3 -41.5t-16.5 -31.5t-39.5 -15q-24 0 -38.5 10.5t-19.5 32t-6 37.5t0.5 46t1.5 38zM3135 -270v231h91v-22h-56
v-80h45v-21h-45v-92h56v-16h-91zM3166 37v575h92q86 0 124 -43.5t38 -136.5v-215q0 -94 -35.5 -137t-113.5 -43h-105zM3170 776l35 12q0 -47 14 -53q39 -3 39 29q0 13 -9.5 26.5t-24.5 27.5t-19 20q-26 21 -32 48.5t18 51.5q25 21 63 8q33 -14 33 -59l-29 -4q-14 49 -36 47
q-14 -1 -17 -21q-9 -31 27 -63q5 -4 17.5 -12.5t18.5 -13.5t12 -14t7 -18q9 -32 -6.5 -55.5t-48.5 -23.5q-25 0 -42 19.5t-20 47.5zM3219 1245q0 15 -0.5 49t-0.5 53.5t2 46.5t6 48q26 78 112 78q100 0 119 -66q12 -26 14.5 -59t-1 -79.5t-3.5 -58.5t1.5 -36.5t0.5 -41
t-6 -32.5q-6 -44 -36.5 -67t-78.5 -23q-49 0 -83.5 25t-38.5 69q-7 36 -7 94zM3244 -563v231h33v-231h-33zM3258 127h33q27 15 27 33q4 27 4 84v155q0 57 -4 82q0 10 -8.5 21.5t-18.5 11.5h-33v-387zM3287 1204q0 -63 12 -81q7 -9 15 -13q34 -13 57 0q33 16 37 57
q2 6 2 15.5t-1 20.5t-1 14v165v11.5v12t-0.5 10.5t-1.5 11t-3 9.5t-5 9.5t-7 8q-40 24 -57 12q-19 0 -29 -8t-18 -28q-4 -20 -4 -45t2 -56.5t2 -46.5v-78zM3299 -563l49 231h35l54 -231h-31l-10 61h-50l-12 -61h-35zM3314 709v241h94v-18h-60v-86h48v-25h-48v-86h64v-26h-98
zM3326 -270v231h88v-22h-66v-80h48v-21h-48v-108h-22zM3348 -485h43l-20 112zM3408 1722v-20.5t1.5 -19.5t5 -22t10.5 -16t18 -14q9 -4 25.5 -4t25.5 4q33 18 33 62v209q0 56 -21 77q-18 25 -51 15q-17 -2 -27 -12t-16 -33q-7 -17 -8 -41t1.5 -57t2.5 -46v-82zM3430 37
l107 575h90l98 -575h-96l-18 137h-62l-20 -137h-99zM3437 -215q-2 6 -2 15.5t1 21t1 16.5v123h24v-102q0 -2 -1 -22t0 -31.5t3.5 -27.5t9.5 -24t19 -8q13 0 21 8t11 24.5t3.5 27t0 31.5t-0.5 22v102h28v-104v-16.5v-19t-1 -18.5t-2.5 -19.5t-4.5 -17t-7.5 -16t-11.5 -11.5
t-16 -9q-65 -18 -75 55zM3457 -563v231h31v-211h61v-20h-92zM3488 950h35l32 -174l37 174h29l-49 -241h-33zM3537 1063v457h43l129 -308v308h57v-457h-45l-135 309v-309h-49zM3564 256h30l-16 117zM3592 -270v231h35v-215h53v-16h-88zM3629 -332h29l35 -170l36 170h29
l-53 -231h-25zM3645 709v241h35v-241h-35zM3658 1583v459h37l129 -307v307h57v-459h-43l-129 307v-307h-51zM3705 -270v231h33v-215h57v-16h-90zM3711 776l31 12q0 -16 6.5 -32.5t17.5 -20.5q13 -2 21 5.5t8 23.5q3 13 -7 28.5t-18 22.5t-28 23q-15 14 -24 30.5t-7.5 36
t18.5 33.5q36 22 64 8q27 -14 31 -59l-29 -4q-3 29 -12.5 40t-20 5.5t-16.5 -19.5q-2 -10 -3 -16t4.5 -14t9 -12t10.5 -11l10 -10l6 -4q6 -5 8 -6.5t7.5 -6t7.5 -7l6 -7.5t6 -8.5t4 -8.5t2 -10q9 -31 -6 -55t-44 -24q-55 0 -63 67zM3738 37v575h69l99 -274v274h92v-575h-74
l-98 282v-282h-88zM3783 -563v231h94v-22h-62v-70h52v-25h-52v-94h62v-20h-94zM3836 1063v457h61v-418h111v-39h-172zM3854 709v241h35v-241h-35zM3877 -270l43 231h37l51 -231h-35l-8 57h-45l-17 -57h-26zM3901 -563v231q8 0 28.5 2t35.5 1t27 -7q26 -17 23.5 -58.5
t-32.5 -51.5l37 -117h-33l-30 114h-23v-114h-33zM3910 932v18h110v-18h-39v-223h-26v223h-45zM3920 -190h39l-21 106zM3926 1583l98 459h64l96 -459h-59l-23 109h-94l-25 -109h-57zM3934 -424q19 0 27.5 1t15 8t6.5 22q0 24 -11.5 31.5t-37.5 7.5v-70zM4018 1741h76l-35 207
zM4030 -270v231h21l65 -154v154h31v-231h-22l-62 157v-157h-33zM4030 1520h58l67 -224l70 224h64q-9 -31 -31 -96t-33 -101l-31 -90q-4 -9 -5 -20t0 -25t1 -17v-108h-63v90v70q-17 58 -33 88zM4045 -496l31 7q0 -38 18 -46q16 -7 27.5 1.5t11.5 23.5q0 30 -57 68
q-24 24 -29.5 53.5t18.5 46.5q39 27 64 8q26 -9 26 -51l-22 -14q-1 3 -2 10.5t-2 11.5t-3 9.5t-5 8.5t-7 5q-19 10 -34 -13q-3 -6 -3 -12.5t1.5 -11t6 -9.5t8 -8t10 -8t9.5 -8q3 -4 16.5 -17.5t20 -24.5t6.5 -26q11 -28 -2 -50.5t-43 -22.5q-61 0 -65 69zM4047 37v575h164
q41 0 74.5 -38t33.5 -111q0 -98 -49 -125q55 -44 55 -150q0 -72 -33.5 -111.5t-72.5 -39.5h-172zM4139 123h45q24 0 34 28t7 66q-8 70 -49 70h-37v-164zM4139 369h37q43 0 43 75q0 86 -45 86h-35v-161zM4184 -270v231q2 0 22 0.5t29.5 0t25.5 -4.5t28 -12q10 -8 13 -23
t1 -44.5t-2 -33.5q0 -6 1 -21.5t0.5 -24.5t-2.5 -21t-8 -20t-16 -13q-8 -7 -21.5 -10.5t-22.5 -4t-27.5 0t-20.5 0.5zM4190 -563v231h29v-231h-29zM4217 -254q16 0 23.5 1.5t16 10.5t13.5 27v119q-1 24 -13.5 29.5t-39.5 5.5v-193zM4231 1583v459h66v-416h114v-43h-180z
M4254 -442q0 25 0.5 36.5t4 30.5t11 27t22 13.5t35.5 2.5q12 0 21.5 -3.5t15.5 -8t10.5 -13.5t6.5 -14.5t3 -18t1 -18v-19.5v-17v-8q0 -26 -1 -40t-6.5 -34t-19.5 -29.5t-37 -9.5q-12 0 -22 2.5t-16.5 8.5t-11.5 10.5t-8 15t-5 15.5t-3 18.5t-1 17.5v19v16zM4295 -424
q0 -4 -4 -34.5t-2 -51.5t14 -25q46 -25 50 50q1 9 1 30q0 5 1 18.5t1 24.5t-1 23.5t-4.5 20.5t-10.5 10q-45 19 -45 -35v-31zM4321 1063v61h64v-61h-64zM4321 1520h64l-23 -363h-20zM4372 244v368h99v-356q0 -85 6 -113q17 -26 45 -20q21 11 25 21q2 6 2 16q6 27 6 84v368
h92v-368q0 -93 -13 -129q-14 -41 -46 -60q-52 -33 -132 -14q-36 14 -55.5 47t-21.5 72q-7 34 -7 84zM4420 -563v231h18l72 -155v155h24v-231h-22l-74 162v-162h-18zM4696 37v575h168q38 0 71 -38t33 -111q0 -45 -17 -89.5t-52 -68.5l63 -268h-94l-51 250h-27v-250h-94z
M4790 369h51q16 9 22.5 48.5t-5 76t-37.5 36.5h-31v-161zM4993 612h98l39 -231l41 231h101l-97 -344v-231h-96v248z" />
    <glyph glyph-name="uni0030" unicode="4" horiz-adv-x="6334" 
d="M3463 1579q-102 0 -117 98q-6 29 -6 84q0 15 -0.5 50.5t-0.5 55.5t2 47.5t7 47.5q16 78 109 82q42 0 77 -16t46 -50q8 -20 11.5 -47.5t3.5 -49t-1.5 -55t-1.5 -48.5q0 -76 -6 -105q-19 -94 -123 -94zM1421 41l9 575h92l69 -360l66 360h98l2 -575h-80l-10 240l-41 -240
h-67l-48 233l-4 -233h-86zM1833 41v575h74l96 -274v274h92v-575h-72l-100 283v-283h-90zM2132 -401q0 34 19.5 55t56.5 14q22 -1 33 -14t12.5 -25.5t1.5 -36.5h-29q0 34 -2 41q-6 15 -24 16t-27 -11q-4 -6 -6 -18.5t-2.5 -21t0 -24.5t0.5 -18t-0.5 -13.5t0 -18.5t1.5 -18
t3.5 -19.5t7.5 -14.5q6 -12 23.5 -10.5t23.5 16.5q2 7 2 45h29q0 -25 -2.5 -41.5t-15.5 -31.5t-37 -15q-17 0 -30 5.5t-20.5 17.5t-11.5 23.5t-5.5 29.5t-1.5 30t0.5 31.5t0.5 26.5zM2159 41v104h98v-104h-98zM2284 -442q0 25 0.5 36.5t3.5 30.5t10 27t20 13.5t33 2.5
q23 -1 37 -10t19.5 -27.5t6.5 -31.5t1 -36v-7v-27.5t-1.5 -26t-6 -27t-11 -20t-19 -16t-28.5 -4.5q-19 0 -32 6.5t-19.5 14t-10 24.5t-4 24.5t0 29t0.5 24.5zM2288 1583v459h98q85 0 111 -51q24 -40 18.5 -92t-41.5 -78q-6 -6 -13.5 -11t-18 -8t-17 -4.5t-20.5 -2.5t-18 -1
h-20h-18v-211h-61zM2292 244l92 4q0 -70 20 -103q16 -27 37 -18q25 6 25 47q0 21 -10.5 43.5t-22 36t-31.5 35t-26 28.5q-8 11 -29 30t-25 30q-37 60 -22 135q2 62 60 95t118 5q76 -37 76 -184l-88 -4q-2 9 -4.5 41t-9 49.5t-23.5 20.5q-30 1 -39.5 -26.5t-1.5 -47.5
q4 -12 11.5 -22.5t12.5 -16t16 -15.5t15 -14l45 -51q80 -80 68 -192q-2 -39 -28.5 -72t-71.5 -43q-43 -6 -82.5 11.5t-57.5 55.5q-24 65 -24 142zM2292 1233v287h59v-308q0 -29 1 -42.5t10 -35t28 -32.5q46 -13 65 19.5t19 82.5v146v170h63v-209q0 -10 1 -43t1 -51.5t-4 -48
t-11.5 -47t-24 -34.5t-39.5 -24q-39 -21 -89 -3.5t-67 62.5q-12 31 -12 111zM2312 -424q0 -4 -0.5 -20t-0.5 -28t1 -26.5t5.5 -24t11.5 -12.5q48 -25 51 50v30q0 3 0.5 18.5t0 25t-1.5 22.5t-5 21t-11 10q-24 11 -37.5 -0.5t-13.5 -34.5v-31zM2349 1843q51 0 68 4
q39 9 39 64q0 16 -0.5 25t-4 22t-12 21t-22.5 12q-11 4 -22 4.5t-25 -1t-21 -1.5v-150zM2372 -270v231h88v-22h-54v-80h43v-21h-43v-108h-34zM2443 -563v231h37l43 -184l37 184h33l2 -231h-23v170l-37 -170h-26l-37 170v-170h-29zM2480 -147q0 22 0.5 33.5t4 29.5t10.5 27
t21 16.5t34 7.5q12 -2 21.5 -7t15.5 -9.5t10.5 -15.5t7 -16t3.5 -19.5t1 -18v-20v-17.5q0 -17 -0.5 -26.5t-2 -25.5t-5.5 -25.5t-10.5 -19.5t-18 -14.5t-26.5 -4.5q-19 0 -32.5 7.5t-20 16.5t-10 28t-3.5 29v33v11zM2513 -141q0 -2 -1.5 -22.5t-1.5 -35t6 -30.5t19 -21
q14 -4 23.5 3t12.5 23.5t4 28t1 31.5q0 3 1 23t1 33t-4.5 27.5t-13.5 17.5q-18 12 -32.5 -2.5t-14.5 -38.5v-37zM2560 1583v459h174v-49h-113v-150h95v-49h-95v-168h117v-43h-178zM2587 1186l63 18q0 -3 2 -18t3 -20t3.5 -15.5t6 -17t8.5 -11.5q14 -16 35.5 -18t33.5 12
q20 18 20 43.5t-14 46.5q-3 4 -12 16.5t-18 21t-21 13.5q-6 6 -28.5 24.5t-37.5 33.5t-24 31q-18 29 -19 64.5t18 66.5t54 43q57 10 111 -19q39 -29 39 -98l-49 -19q-4 75 -49 82q-22 7 -38.5 -2.5t-19.5 -29.5q-3 -9 -3.5 -18.5t1.5 -17t7 -15.5t10 -14t13 -14t14.5 -13
t15.5 -12.5t14 -12.5q4 -3 23 -19.5t25 -23t18 -21t17 -28.5t7 -31q12 -53 -18.5 -95t-85.5 -42t-87.5 36t-37.5 93zM2601 330q0 17 -1.5 53.5t-1 63t4.5 49.5q14 89 84 120q80 19 127 -12q18 -11 31 -28.5t19 -33t9 -40t3.5 -37.5t0.5 -39v-12h-94q0 74 -4.5 93t-23.5 28
q-31 4 -42.5 -18t-11.5 -60v-209q0 -5 -0.5 -19t-1 -24t1 -24.5t5 -24t10.5 -18t18 -11.5q11 -2 19.5 -3.5t15 5.5t10.5 12.5t6.5 18t4 21t2 22t0.5 21.5t-0.5 18.5t-0.5 13.5h-57v86h148v-301h-74l-4 18q-27 -24 -70 -25.5t-72 19.5q-50 22 -59 117q-4 25 -4.5 50.5t1 59.5
t1.5 50zM2636 -563v231h35l41 -184l38 184h31l4 -231h-20l-4 170l-37 -170h-27l-31 170l-6 -170h-24zM2644 -270v231q7 0 21 0.5t23 1t21 -1.5t21 -6q27 -14 29 -57t-29 -54l35 -114h-35l-33 108h-24v-108h-29zM2666 709v241q4 0 20.5 0.5t25.5 0t22.5 -2.5t23 -8t15.5 -16
q7 -20 5 -48.5t-13 -39.5q-6 -4 -11.5 -7t-9.5 -4.5t-11.5 -2.5t-10.5 -1h-12.5h-12.5v-112h-31zM2673 -141q27 0 42 9t15 34q0 24 -13.5 30.5t-43.5 6.5v-80zM2697 842q29 0 33 4q18 10 18 47q0 19 -7 27.5t-15.5 10t-28.5 1.5v-90zM2785 1583v459q8 0 36 0.5t41.5 0
t35.5 -2t38.5 -6t31.5 -11.5q50 -30 51.5 -109.5t-51.5 -101.5l55 -229h-55l-66 213h-47v-213h-70zM2810 709v241h24v-215h62v-26h-86zM2824 -563v231h92v-22h-57v-70h47v-25h-47v-94h57v-20h-92zM2839 -61v22h122v-22h-45v-209h-34v209h-43zM2855 1843q40 0 63 4
q44 20 37 78q0 52 -37 62q-10 5 -20.5 6.5t-25.5 0.5t-17 -1v-150zM2873 1063v457h176v-54h-116v-149h92v-45h-92v-170h116v-39h-176zM2902 -31l154 721h90l-164 -721h-80zM2918 709v241h91v-18h-60v-86h49v-25h-49v-86h60v-26h-91zM2939 -563v231q11 0 31.5 2t34 1t24.5 -7
q26 -18 26 -58t-30 -50l35 -119h-31l-27 114h-26v-114h-37zM2976 -424q18 0 26.5 1t15.5 8t7 22q0 24 -12 31.5t-37 7.5v-70zM2976 -270v231h28v-102h66v102h33v-231h-33v108h-66v-108h-28zM3023 709l51 241h37l45 -241h-33l-12 65h-51l-6 -65h-31zM3062 793h49l-23 114z
M3062 1710l63 19q3 -60 25 -82q15 -17 38 -19t38 12q17 14 16 40.5t-16 48.5q-3 3 -11.5 13t-18.5 19.5t-22 18.5q-6 6 -39.5 36t-48.5 48q-19 32 -20.5 69t18.5 66.5t58 36.5q21 9 53 5.5t55 -18.5q32 -20 41 -96l-51 -16q-1 3 -4 16t-4.5 18.5t-5.5 16.5t-8.5 16.5
t-11.5 11.5t-15 9q-23 0 -41.5 -11t-22.5 -30q-3 -25 10.5 -48.5t28 -36t39.5 -30.5q8 -8 27 -28t28.5 -31t21 -29.5t15.5 -36.5q11 -55 -19.5 -97t-86.5 -42q-58 0 -92 36.5t-37 94.5zM3088 -401q0 34 19 55t55 14q29 -1 38 -21.5t9 -54.5h-33q0 2 1.5 10.5t1 16.5t-4.5 14
q-3 15 -20 16t-27 -11q-7 -8 -8.5 -22.5t0.5 -35.5t2 -24q0 -2 -2 -23t-0.5 -36.5t8.5 -24.5q10 -12 27 -10.5t20 16.5q4 6 4.5 13.5t-1 17.5t-1.5 14h33q0 -25 -3 -41.5t-16.5 -31.5t-39.5 -15q-24 0 -38.5 10.5t-19.5 32t-6 37.5t0.5 46t1.5 38zM3135 -270v231h91v-22h-56
v-80h45v-21h-45v-92h56v-16h-91zM3166 37v575h92q86 0 124 -43.5t38 -136.5v-215q0 -94 -35.5 -137t-113.5 -43h-105zM3170 776l35 12q0 -47 14 -53q39 -3 39 29q0 13 -9.5 26.5t-24.5 27.5t-19 20q-26 21 -32 48.5t18 51.5q25 21 63 8q33 -14 33 -59l-29 -4q-14 49 -36 47
q-14 -1 -17 -21q-9 -31 27 -63q5 -4 17.5 -12.5t18.5 -13.5t12 -14t7 -18q9 -32 -6.5 -55.5t-48.5 -23.5q-25 0 -42 19.5t-20 47.5zM3219 1245q0 15 -0.5 49t-0.5 53.5t2 46.5t6 48q26 78 112 78q100 0 119 -66q12 -26 14.5 -59t-1 -79.5t-3.5 -58.5t1.5 -36.5t0.5 -41
t-6 -32.5q-6 -44 -36.5 -67t-78.5 -23q-49 0 -83.5 25t-38.5 69q-7 36 -7 94zM3244 -563v231h33v-231h-33zM3258 127h33q27 15 27 33q4 27 4 84v155q0 57 -4 82q0 10 -8.5 21.5t-18.5 11.5h-33v-387zM3287 1204q0 -63 12 -81q7 -9 15 -13q34 -13 57 0q33 16 37 57
q2 6 2 15.5t-1 20.5t-1 14v165v11.5v12t-0.5 10.5t-1.5 11t-3 9.5t-5 9.5t-7 8q-40 24 -57 12q-19 0 -29 -8t-18 -28q-4 -20 -4 -45t2 -56.5t2 -46.5v-78zM3299 -563l49 231h35l54 -231h-31l-10 61h-50l-12 -61h-35zM3314 709v241h94v-18h-60v-86h48v-25h-48v-86h64v-26h-98
zM3326 -270v231h88v-22h-66v-80h48v-21h-48v-108h-22zM3348 -485h43l-20 112zM3408 1722v-20.5t1.5 -19.5t5 -22t10.5 -16t18 -14q9 -4 25.5 -4t25.5 4q33 18 33 62v209q0 56 -21 77q-18 25 -51 15q-17 -2 -27 -12t-16 -33q-7 -17 -8 -41t1.5 -57t2.5 -46v-82zM3430 37
l107 575h90l98 -575h-96l-18 137h-62l-20 -137h-99zM3437 -215q-2 6 -2 15.5t1 21t1 16.5v123h24v-102q0 -2 -1 -22t0 -31.5t3.5 -27.5t9.5 -24t19 -8q13 0 21 8t11 24.5t3.5 27t0 31.5t-0.5 22v102h28v-104v-16.5v-19t-1 -18.5t-2.5 -19.5t-4.5 -17t-7.5 -16t-11.5 -11.5
t-16 -9q-65 -18 -75 55zM3457 -563v231h31v-211h61v-20h-92zM3488 950h35l32 -174l37 174h29l-49 -241h-33zM3537 1063v457h43l129 -308v308h57v-457h-45l-135 309v-309h-49zM3564 256h30l-16 117zM3592 -270v231h35v-215h53v-16h-88zM3629 -332h29l35 -170l36 170h29
l-53 -231h-25zM3645 709v241h35v-241h-35zM3658 1583v459h37l129 -307v307h57v-459h-43l-129 307v-307h-51zM3705 -270v231h33v-215h57v-16h-90zM3711 776l31 12q0 -16 6.5 -32.5t17.5 -20.5q13 -2 21 5.5t8 23.5q3 13 -7 28.5t-18 22.5t-28 23q-15 14 -24 30.5t-7.5 36
t18.5 33.5q36 22 64 8q27 -14 31 -59l-29 -4q-3 29 -12.5 40t-20 5.5t-16.5 -19.5q-2 -10 -3 -16t4.5 -14t9 -12t10.5 -11l10 -10l6 -4q6 -5 8 -6.5t7.5 -6t7.5 -7l6 -7.5t6 -8.5t4 -8.5t2 -10q9 -31 -6 -55t-44 -24q-55 0 -63 67zM3738 37v575h69l99 -274v274h92v-575h-74
l-98 282v-282h-88zM3783 -563v231h94v-22h-62v-70h52v-25h-52v-94h62v-20h-94zM3836 1063v457h61v-418h111v-39h-172zM3854 709v241h35v-241h-35zM3877 -270l43 231h37l51 -231h-35l-8 57h-45l-17 -57h-26zM3901 -563v231q8 0 28.5 2t35.5 1t27 -7q26 -17 23.5 -58.5
t-32.5 -51.5l37 -117h-33l-30 114h-23v-114h-33zM3910 932v18h110v-18h-39v-223h-26v223h-45zM3920 -190h39l-21 106zM3926 1583l98 459h64l96 -459h-59l-23 109h-94l-25 -109h-57zM3934 -424q19 0 27.5 1t15 8t6.5 22q0 24 -11.5 31.5t-37.5 7.5v-70zM4018 1741h76l-35 207
zM4030 -270v231h21l65 -154v154h31v-231h-22l-62 157v-157h-33zM4030 1520h58l67 -224l70 224h64q-9 -31 -31 -96t-33 -101l-31 -90q-4 -9 -5 -20t0 -25t1 -17v-108h-63v90v70q-17 58 -33 88zM4045 -496l31 7q0 -38 18 -46q16 -7 27.5 1.5t11.5 23.5q0 30 -57 68
q-24 24 -29.5 53.5t18.5 46.5q39 27 64 8q26 -9 26 -51l-22 -14q-1 3 -2 10.5t-2 11.5t-3 9.5t-5 8.5t-7 5q-19 10 -34 -13q-3 -6 -3 -12.5t1.5 -11t6 -9.5t8 -8t10 -8t9.5 -8q3 -4 16.5 -17.5t20 -24.5t6.5 -26q11 -28 -2 -50.5t-43 -22.5q-61 0 -65 69zM4047 37v575h164
q41 0 74.5 -38t33.5 -111q0 -98 -49 -125q55 -44 55 -150q0 -72 -33.5 -111.5t-72.5 -39.5h-172zM4139 123h45q24 0 34 28t7 66q-8 70 -49 70h-37v-164zM4139 369h37q43 0 43 75q0 86 -45 86h-35v-161zM4184 -270v231q2 0 22 0.5t29.5 0t25.5 -4.5t28 -12q10 -8 13 -23
t1 -44.5t-2 -33.5q0 -6 1 -21.5t0.5 -24.5t-2.5 -21t-8 -20t-16 -13q-8 -7 -21.5 -10.5t-22.5 -4t-27.5 0t-20.5 0.5zM4190 -563v231h29v-231h-29zM4217 -254q16 0 23.5 1.5t16 10.5t13.5 27v119q-1 24 -13.5 29.5t-39.5 5.5v-193zM4231 1583v459h66v-416h114v-43h-180z
M4254 -442q0 25 0.5 36.5t4 30.5t11 27t22 13.5t35.5 2.5q12 0 21.5 -3.5t15.5 -8t10.5 -13.5t6.5 -14.5t3 -18t1 -18v-19.5v-17v-8q0 -26 -1 -40t-6.5 -34t-19.5 -29.5t-37 -9.5q-12 0 -22 2.5t-16.5 8.5t-11.5 10.5t-8 15t-5 15.5t-3 18.5t-1 17.5v19v16zM4295 -424
q0 -4 -4 -34.5t-2 -51.5t14 -25q46 -25 50 50q1 9 1 30q0 5 1 18.5t1 24.5t-1 23.5t-4.5 20.5t-10.5 10q-45 19 -45 -35v-31zM4321 1063v61h64v-61h-64zM4321 1520h64l-23 -363h-20zM4372 244v368h99v-356q0 -85 6 -113q17 -26 45 -20q21 11 25 21q2 6 2 16q6 27 6 84v368
h92v-368q0 -93 -13 -129q-14 -41 -46 -60q-52 -33 -132 -14q-36 14 -55.5 47t-21.5 72q-7 34 -7 84zM4420 -563v231h18l72 -155v155h24v-231h-22l-74 162v-162h-18zM4696 37v575h168q38 0 71 -38t33 -111q0 -45 -17 -89.5t-52 -68.5l63 -268h-94l-51 250h-27v-250h-94z
M4790 369h51q16 9 22.5 48.5t-5 76t-37.5 36.5h-31v-161zM4993 612h98l39 -231l41 231h101l-97 -344v-231h-96v248z" />
    <glyph glyph-name="uni0030" unicode="3" horiz-adv-x="6334" 
d="M3463 1579q-102 0 -117 98q-6 29 -6 84q0 15 -0.5 50.5t-0.5 55.5t2 47.5t7 47.5q16 78 109 82q42 0 77 -16t46 -50q8 -20 11.5 -47.5t3.5 -49t-1.5 -55t-1.5 -48.5q0 -76 -6 -105q-19 -94 -123 -94zM1421 41l9 575h92l69 -360l66 360h98l2 -575h-80l-10 240l-41 -240
h-67l-48 233l-4 -233h-86zM1833 41v575h74l96 -274v274h92v-575h-72l-100 283v-283h-90zM2132 -401q0 34 19.5 55t56.5 14q22 -1 33 -14t12.5 -25.5t1.5 -36.5h-29q0 34 -2 41q-6 15 -24 16t-27 -11q-4 -6 -6 -18.5t-2.5 -21t0 -24.5t0.5 -18t-0.5 -13.5t0 -18.5t1.5 -18
t3.5 -19.5t7.5 -14.5q6 -12 23.5 -10.5t23.5 16.5q2 7 2 45h29q0 -25 -2.5 -41.5t-15.5 -31.5t-37 -15q-17 0 -30 5.5t-20.5 17.5t-11.5 23.5t-5.5 29.5t-1.5 30t0.5 31.5t0.5 26.5zM2159 41v104h98v-104h-98zM2284 -442q0 25 0.5 36.5t3.5 30.5t10 27t20 13.5t33 2.5
q23 -1 37 -10t19.5 -27.5t6.5 -31.5t1 -36v-7v-27.5t-1.5 -26t-6 -27t-11 -20t-19 -16t-28.5 -4.5q-19 0 -32 6.5t-19.5 14t-10 24.5t-4 24.5t0 29t0.5 24.5zM2288 1583v459h98q85 0 111 -51q24 -40 18.5 -92t-41.5 -78q-6 -6 -13.5 -11t-18 -8t-17 -4.5t-20.5 -2.5t-18 -1
h-20h-18v-211h-61zM2292 244l92 4q0 -70 20 -103q16 -27 37 -18q25 6 25 47q0 21 -10.5 43.5t-22 36t-31.5 35t-26 28.5q-8 11 -29 30t-25 30q-37 60 -22 135q2 62 60 95t118 5q76 -37 76 -184l-88 -4q-2 9 -4.5 41t-9 49.5t-23.5 20.5q-30 1 -39.5 -26.5t-1.5 -47.5
q4 -12 11.5 -22.5t12.5 -16t16 -15.5t15 -14l45 -51q80 -80 68 -192q-2 -39 -28.5 -72t-71.5 -43q-43 -6 -82.5 11.5t-57.5 55.5q-24 65 -24 142zM2292 1233v287h59v-308q0 -29 1 -42.5t10 -35t28 -32.5q46 -13 65 19.5t19 82.5v146v170h63v-209q0 -10 1 -43t1 -51.5t-4 -48
t-11.5 -47t-24 -34.5t-39.5 -24q-39 -21 -89 -3.5t-67 62.5q-12 31 -12 111zM2312 -424q0 -4 -0.5 -20t-0.5 -28t1 -26.5t5.5 -24t11.5 -12.5q48 -25 51 50v30q0 3 0.5 18.5t0 25t-1.5 22.5t-5 21t-11 10q-24 11 -37.5 -0.5t-13.5 -34.5v-31zM2349 1843q51 0 68 4
q39 9 39 64q0 16 -0.5 25t-4 22t-12 21t-22.5 12q-11 4 -22 4.5t-25 -1t-21 -1.5v-150zM2372 -270v231h88v-22h-54v-80h43v-21h-43v-108h-34zM2443 -563v231h37l43 -184l37 184h33l2 -231h-23v170l-37 -170h-26l-37 170v-170h-29zM2480 -147q0 22 0.5 33.5t4 29.5t10.5 27
t21 16.5t34 7.5q12 -2 21.5 -7t15.5 -9.5t10.5 -15.5t7 -16t3.5 -19.5t1 -18v-20v-17.5q0 -17 -0.5 -26.5t-2 -25.5t-5.5 -25.5t-10.5 -19.5t-18 -14.5t-26.5 -4.5q-19 0 -32.5 7.5t-20 16.5t-10 28t-3.5 29v33v11zM2513 -141q0 -2 -1.5 -22.5t-1.5 -35t6 -30.5t19 -21
q14 -4 23.5 3t12.5 23.5t4 28t1 31.5q0 3 1 23t1 33t-4.5 27.5t-13.5 17.5q-18 12 -32.5 -2.5t-14.5 -38.5v-37zM2560 1583v459h174v-49h-113v-150h95v-49h-95v-168h117v-43h-178zM2587 1186l63 18q0 -3 2 -18t3 -20t3.5 -15.5t6 -17t8.5 -11.5q14 -16 35.5 -18t33.5 12
q20 18 20 43.5t-14 46.5q-3 4 -12 16.5t-18 21t-21 13.5q-6 6 -28.5 24.5t-37.5 33.5t-24 31q-18 29 -19 64.5t18 66.5t54 43q57 10 111 -19q39 -29 39 -98l-49 -19q-4 75 -49 82q-22 7 -38.5 -2.5t-19.5 -29.5q-3 -9 -3.5 -18.5t1.5 -17t7 -15.5t10 -14t13 -14t14.5 -13
t15.5 -12.5t14 -12.5q4 -3 23 -19.5t25 -23t18 -21t17 -28.5t7 -31q12 -53 -18.5 -95t-85.5 -42t-87.5 36t-37.5 93zM2601 330q0 17 -1.5 53.5t-1 63t4.5 49.5q14 89 84 120q80 19 127 -12q18 -11 31 -28.5t19 -33t9 -40t3.5 -37.5t0.5 -39v-12h-94q0 74 -4.5 93t-23.5 28
q-31 4 -42.5 -18t-11.5 -60v-209q0 -5 -0.5 -19t-1 -24t1 -24.5t5 -24t10.5 -18t18 -11.5q11 -2 19.5 -3.5t15 5.5t10.5 12.5t6.5 18t4 21t2 22t0.5 21.5t-0.5 18.5t-0.5 13.5h-57v86h148v-301h-74l-4 18q-27 -24 -70 -25.5t-72 19.5q-50 22 -59 117q-4 25 -4.5 50.5t1 59.5
t1.5 50zM2636 -563v231h35l41 -184l38 184h31l4 -231h-20l-4 170l-37 -170h-27l-31 170l-6 -170h-24zM2644 -270v231q7 0 21 0.5t23 1t21 -1.5t21 -6q27 -14 29 -57t-29 -54l35 -114h-35l-33 108h-24v-108h-29zM2666 709v241q4 0 20.5 0.5t25.5 0t22.5 -2.5t23 -8t15.5 -16
q7 -20 5 -48.5t-13 -39.5q-6 -4 -11.5 -7t-9.5 -4.5t-11.5 -2.5t-10.5 -1h-12.5h-12.5v-112h-31zM2673 -141q27 0 42 9t15 34q0 24 -13.5 30.5t-43.5 6.5v-80zM2697 842q29 0 33 4q18 10 18 47q0 19 -7 27.5t-15.5 10t-28.5 1.5v-90zM2785 1583v459q8 0 36 0.5t41.5 0
t35.5 -2t38.5 -6t31.5 -11.5q50 -30 51.5 -109.5t-51.5 -101.5l55 -229h-55l-66 213h-47v-213h-70zM2810 709v241h24v-215h62v-26h-86zM2824 -563v231h92v-22h-57v-70h47v-25h-47v-94h57v-20h-92zM2839 -61v22h122v-22h-45v-209h-34v209h-43zM2855 1843q40 0 63 4
q44 20 37 78q0 52 -37 62q-10 5 -20.5 6.5t-25.5 0.5t-17 -1v-150zM2873 1063v457h176v-54h-116v-149h92v-45h-92v-170h116v-39h-176zM2902 -31l154 721h90l-164 -721h-80zM2918 709v241h91v-18h-60v-86h49v-25h-49v-86h60v-26h-91zM2939 -563v231q11 0 31.5 2t34 1t24.5 -7
q26 -18 26 -58t-30 -50l35 -119h-31l-27 114h-26v-114h-37zM2976 -424q18 0 26.5 1t15.5 8t7 22q0 24 -12 31.5t-37 7.5v-70zM2976 -270v231h28v-102h66v102h33v-231h-33v108h-66v-108h-28zM3023 709l51 241h37l45 -241h-33l-12 65h-51l-6 -65h-31zM3062 793h49l-23 114z
M3062 1710l63 19q3 -60 25 -82q15 -17 38 -19t38 12q17 14 16 40.5t-16 48.5q-3 3 -11.5 13t-18.5 19.5t-22 18.5q-6 6 -39.5 36t-48.5 48q-19 32 -20.5 69t18.5 66.5t58 36.5q21 9 53 5.5t55 -18.5q32 -20 41 -96l-51 -16q-1 3 -4 16t-4.5 18.5t-5.5 16.5t-8.5 16.5
t-11.5 11.5t-15 9q-23 0 -41.5 -11t-22.5 -30q-3 -25 10.5 -48.5t28 -36t39.5 -30.5q8 -8 27 -28t28.5 -31t21 -29.5t15.5 -36.5q11 -55 -19.5 -97t-86.5 -42q-58 0 -92 36.5t-37 94.5zM3088 -401q0 34 19 55t55 14q29 -1 38 -21.5t9 -54.5h-33q0 2 1.5 10.5t1 16.5t-4.5 14
q-3 15 -20 16t-27 -11q-7 -8 -8.5 -22.5t0.5 -35.5t2 -24q0 -2 -2 -23t-0.5 -36.5t8.5 -24.5q10 -12 27 -10.5t20 16.5q4 6 4.5 13.5t-1 17.5t-1.5 14h33q0 -25 -3 -41.5t-16.5 -31.5t-39.5 -15q-24 0 -38.5 10.5t-19.5 32t-6 37.5t0.5 46t1.5 38zM3135 -270v231h91v-22h-56
v-80h45v-21h-45v-92h56v-16h-91zM3166 37v575h92q86 0 124 -43.5t38 -136.5v-215q0 -94 -35.5 -137t-113.5 -43h-105zM3170 776l35 12q0 -47 14 -53q39 -3 39 29q0 13 -9.5 26.5t-24.5 27.5t-19 20q-26 21 -32 48.5t18 51.5q25 21 63 8q33 -14 33 -59l-29 -4q-14 49 -36 47
q-14 -1 -17 -21q-9 -31 27 -63q5 -4 17.5 -12.5t18.5 -13.5t12 -14t7 -18q9 -32 -6.5 -55.5t-48.5 -23.5q-25 0 -42 19.5t-20 47.5zM3219 1245q0 15 -0.5 49t-0.5 53.5t2 46.5t6 48q26 78 112 78q100 0 119 -66q12 -26 14.5 -59t-1 -79.5t-3.5 -58.5t1.5 -36.5t0.5 -41
t-6 -32.5q-6 -44 -36.5 -67t-78.5 -23q-49 0 -83.5 25t-38.5 69q-7 36 -7 94zM3244 -563v231h33v-231h-33zM3258 127h33q27 15 27 33q4 27 4 84v155q0 57 -4 82q0 10 -8.5 21.5t-18.5 11.5h-33v-387zM3287 1204q0 -63 12 -81q7 -9 15 -13q34 -13 57 0q33 16 37 57
q2 6 2 15.5t-1 20.5t-1 14v165v11.5v12t-0.5 10.5t-1.5 11t-3 9.5t-5 9.5t-7 8q-40 24 -57 12q-19 0 -29 -8t-18 -28q-4 -20 -4 -45t2 -56.5t2 -46.5v-78zM3299 -563l49 231h35l54 -231h-31l-10 61h-50l-12 -61h-35zM3314 709v241h94v-18h-60v-86h48v-25h-48v-86h64v-26h-98
zM3326 -270v231h88v-22h-66v-80h48v-21h-48v-108h-22zM3348 -485h43l-20 112zM3408 1722v-20.5t1.5 -19.5t5 -22t10.5 -16t18 -14q9 -4 25.5 -4t25.5 4q33 18 33 62v209q0 56 -21 77q-18 25 -51 15q-17 -2 -27 -12t-16 -33q-7 -17 -8 -41t1.5 -57t2.5 -46v-82zM3430 37
l107 575h90l98 -575h-96l-18 137h-62l-20 -137h-99zM3437 -215q-2 6 -2 15.5t1 21t1 16.5v123h24v-102q0 -2 -1 -22t0 -31.5t3.5 -27.5t9.5 -24t19 -8q13 0 21 8t11 24.5t3.5 27t0 31.5t-0.5 22v102h28v-104v-16.5v-19t-1 -18.5t-2.5 -19.5t-4.5 -17t-7.5 -16t-11.5 -11.5
t-16 -9q-65 -18 -75 55zM3457 -563v231h31v-211h61v-20h-92zM3488 950h35l32 -174l37 174h29l-49 -241h-33zM3537 1063v457h43l129 -308v308h57v-457h-45l-135 309v-309h-49zM3564 256h30l-16 117zM3592 -270v231h35v-215h53v-16h-88zM3629 -332h29l35 -170l36 170h29
l-53 -231h-25zM3645 709v241h35v-241h-35zM3658 1583v459h37l129 -307v307h57v-459h-43l-129 307v-307h-51zM3705 -270v231h33v-215h57v-16h-90zM3711 776l31 12q0 -16 6.5 -32.5t17.5 -20.5q13 -2 21 5.5t8 23.5q3 13 -7 28.5t-18 22.5t-28 23q-15 14 -24 30.5t-7.5 36
t18.5 33.5q36 22 64 8q27 -14 31 -59l-29 -4q-3 29 -12.5 40t-20 5.5t-16.5 -19.5q-2 -10 -3 -16t4.5 -14t9 -12t10.5 -11l10 -10l6 -4q6 -5 8 -6.5t7.5 -6t7.5 -7l6 -7.5t6 -8.5t4 -8.5t2 -10q9 -31 -6 -55t-44 -24q-55 0 -63 67zM3738 37v575h69l99 -274v274h92v-575h-74
l-98 282v-282h-88zM3783 -563v231h94v-22h-62v-70h52v-25h-52v-94h62v-20h-94zM3836 1063v457h61v-418h111v-39h-172zM3854 709v241h35v-241h-35zM3877 -270l43 231h37l51 -231h-35l-8 57h-45l-17 -57h-26zM3901 -563v231q8 0 28.5 2t35.5 1t27 -7q26 -17 23.5 -58.5
t-32.5 -51.5l37 -117h-33l-30 114h-23v-114h-33zM3910 932v18h110v-18h-39v-223h-26v223h-45zM3920 -190h39l-21 106zM3926 1583l98 459h64l96 -459h-59l-23 109h-94l-25 -109h-57zM3934 -424q19 0 27.5 1t15 8t6.5 22q0 24 -11.5 31.5t-37.5 7.5v-70zM4018 1741h76l-35 207
zM4030 -270v231h21l65 -154v154h31v-231h-22l-62 157v-157h-33zM4030 1520h58l67 -224l70 224h64q-9 -31 -31 -96t-33 -101l-31 -90q-4 -9 -5 -20t0 -25t1 -17v-108h-63v90v70q-17 58 -33 88zM4045 -496l31 7q0 -38 18 -46q16 -7 27.5 1.5t11.5 23.5q0 30 -57 68
q-24 24 -29.5 53.5t18.5 46.5q39 27 64 8q26 -9 26 -51l-22 -14q-1 3 -2 10.5t-2 11.5t-3 9.5t-5 8.5t-7 5q-19 10 -34 -13q-3 -6 -3 -12.5t1.5 -11t6 -9.5t8 -8t10 -8t9.5 -8q3 -4 16.5 -17.5t20 -24.5t6.5 -26q11 -28 -2 -50.5t-43 -22.5q-61 0 -65 69zM4047 37v575h164
q41 0 74.5 -38t33.5 -111q0 -98 -49 -125q55 -44 55 -150q0 -72 -33.5 -111.5t-72.5 -39.5h-172zM4139 123h45q24 0 34 28t7 66q-8 70 -49 70h-37v-164zM4139 369h37q43 0 43 75q0 86 -45 86h-35v-161zM4184 -270v231q2 0 22 0.5t29.5 0t25.5 -4.5t28 -12q10 -8 13 -23
t1 -44.5t-2 -33.5q0 -6 1 -21.5t0.5 -24.5t-2.5 -21t-8 -20t-16 -13q-8 -7 -21.5 -10.5t-22.5 -4t-27.5 0t-20.5 0.5zM4190 -563v231h29v-231h-29zM4217 -254q16 0 23.5 1.5t16 10.5t13.5 27v119q-1 24 -13.5 29.5t-39.5 5.5v-193zM4231 1583v459h66v-416h114v-43h-180z
M4254 -442q0 25 0.5 36.5t4 30.5t11 27t22 13.5t35.5 2.5q12 0 21.5 -3.5t15.5 -8t10.5 -13.5t6.5 -14.5t3 -18t1 -18v-19.5v-17v-8q0 -26 -1 -40t-6.5 -34t-19.5 -29.5t-37 -9.5q-12 0 -22 2.5t-16.5 8.5t-11.5 10.5t-8 15t-5 15.5t-3 18.5t-1 17.5v19v16zM4295 -424
q0 -4 -4 -34.5t-2 -51.5t14 -25q46 -25 50 50q1 9 1 30q0 5 1 18.5t1 24.5t-1 23.5t-4.5 20.5t-10.5 10q-45 19 -45 -35v-31zM4321 1063v61h64v-61h-64zM4321 1520h64l-23 -363h-20zM4372 244v368h99v-356q0 -85 6 -113q17 -26 45 -20q21 11 25 21q2 6 2 16q6 27 6 84v368
h92v-368q0 -93 -13 -129q-14 -41 -46 -60q-52 -33 -132 -14q-36 14 -55.5 47t-21.5 72q-7 34 -7 84zM4420 -563v231h18l72 -155v155h24v-231h-22l-74 162v-162h-18zM4696 37v575h168q38 0 71 -38t33 -111q0 -45 -17 -89.5t-52 -68.5l63 -268h-94l-51 250h-27v-250h-94z
M4790 369h51q16 9 22.5 48.5t-5 76t-37.5 36.5h-31v-161zM4993 612h98l39 -231l41 231h101l-97 -344v-231h-96v248z" />
    <glyph glyph-name="uni0030" unicode="2" horiz-adv-x="6334" 
d="M3463 1579q-102 0 -117 98q-6 29 -6 84q0 15 -0.5 50.5t-0.5 55.5t2 47.5t7 47.5q16 78 109 82q42 0 77 -16t46 -50q8 -20 11.5 -47.5t3.5 -49t-1.5 -55t-1.5 -48.5q0 -76 -6 -105q-19 -94 -123 -94zM1421 41l9 575h92l69 -360l66 360h98l2 -575h-80l-10 240l-41 -240
h-67l-48 233l-4 -233h-86zM1833 41v575h74l96 -274v274h92v-575h-72l-100 283v-283h-90zM2132 -401q0 34 19.5 55t56.5 14q22 -1 33 -14t12.5 -25.5t1.5 -36.5h-29q0 34 -2 41q-6 15 -24 16t-27 -11q-4 -6 -6 -18.5t-2.5 -21t0 -24.5t0.5 -18t-0.5 -13.5t0 -18.5t1.5 -18
t3.5 -19.5t7.5 -14.5q6 -12 23.5 -10.5t23.5 16.5q2 7 2 45h29q0 -25 -2.5 -41.5t-15.5 -31.5t-37 -15q-17 0 -30 5.5t-20.5 17.5t-11.5 23.5t-5.5 29.5t-1.5 30t0.5 31.5t0.5 26.5zM2159 41v104h98v-104h-98zM2284 -442q0 25 0.5 36.5t3.5 30.5t10 27t20 13.5t33 2.5
q23 -1 37 -10t19.5 -27.5t6.5 -31.5t1 -36v-7v-27.5t-1.5 -26t-6 -27t-11 -20t-19 -16t-28.5 -4.5q-19 0 -32 6.5t-19.5 14t-10 24.5t-4 24.5t0 29t0.5 24.5zM2288 1583v459h98q85 0 111 -51q24 -40 18.5 -92t-41.5 -78q-6 -6 -13.5 -11t-18 -8t-17 -4.5t-20.5 -2.5t-18 -1
h-20h-18v-211h-61zM2292 244l92 4q0 -70 20 -103q16 -27 37 -18q25 6 25 47q0 21 -10.5 43.5t-22 36t-31.5 35t-26 28.5q-8 11 -29 30t-25 30q-37 60 -22 135q2 62 60 95t118 5q76 -37 76 -184l-88 -4q-2 9 -4.5 41t-9 49.5t-23.5 20.5q-30 1 -39.5 -26.5t-1.5 -47.5
q4 -12 11.5 -22.5t12.5 -16t16 -15.5t15 -14l45 -51q80 -80 68 -192q-2 -39 -28.5 -72t-71.5 -43q-43 -6 -82.5 11.5t-57.5 55.5q-24 65 -24 142zM2292 1233v287h59v-308q0 -29 1 -42.5t10 -35t28 -32.5q46 -13 65 19.5t19 82.5v146v170h63v-209q0 -10 1 -43t1 -51.5t-4 -48
t-11.5 -47t-24 -34.5t-39.5 -24q-39 -21 -89 -3.5t-67 62.5q-12 31 -12 111zM2312 -424q0 -4 -0.5 -20t-0.5 -28t1 -26.5t5.5 -24t11.5 -12.5q48 -25 51 50v30q0 3 0.5 18.5t0 25t-1.5 22.5t-5 21t-11 10q-24 11 -37.5 -0.5t-13.5 -34.5v-31zM2349 1843q51 0 68 4
q39 9 39 64q0 16 -0.5 25t-4 22t-12 21t-22.5 12q-11 4 -22 4.5t-25 -1t-21 -1.5v-150zM2372 -270v231h88v-22h-54v-80h43v-21h-43v-108h-34zM2443 -563v231h37l43 -184l37 184h33l2 -231h-23v170l-37 -170h-26l-37 170v-170h-29zM2480 -147q0 22 0.5 33.5t4 29.5t10.5 27
t21 16.5t34 7.5q12 -2 21.5 -7t15.5 -9.5t10.5 -15.5t7 -16t3.5 -19.5t1 -18v-20v-17.5q0 -17 -0.5 -26.5t-2 -25.5t-5.5 -25.5t-10.5 -19.5t-18 -14.5t-26.5 -4.5q-19 0 -32.5 7.5t-20 16.5t-10 28t-3.5 29v33v11zM2513 -141q0 -2 -1.5 -22.5t-1.5 -35t6 -30.5t19 -21
q14 -4 23.5 3t12.5 23.5t4 28t1 31.5q0 3 1 23t1 33t-4.5 27.5t-13.5 17.5q-18 12 -32.5 -2.5t-14.5 -38.5v-37zM2560 1583v459h174v-49h-113v-150h95v-49h-95v-168h117v-43h-178zM2587 1186l63 18q0 -3 2 -18t3 -20t3.5 -15.5t6 -17t8.5 -11.5q14 -16 35.5 -18t33.5 12
q20 18 20 43.5t-14 46.5q-3 4 -12 16.5t-18 21t-21 13.5q-6 6 -28.5 24.5t-37.5 33.5t-24 31q-18 29 -19 64.5t18 66.5t54 43q57 10 111 -19q39 -29 39 -98l-49 -19q-4 75 -49 82q-22 7 -38.5 -2.5t-19.5 -29.5q-3 -9 -3.5 -18.5t1.5 -17t7 -15.5t10 -14t13 -14t14.5 -13
t15.5 -12.5t14 -12.5q4 -3 23 -19.5t25 -23t18 -21t17 -28.5t7 -31q12 -53 -18.5 -95t-85.5 -42t-87.5 36t-37.5 93zM2601 330q0 17 -1.5 53.5t-1 63t4.5 49.5q14 89 84 120q80 19 127 -12q18 -11 31 -28.5t19 -33t9 -40t3.5 -37.5t0.5 -39v-12h-94q0 74 -4.5 93t-23.5 28
q-31 4 -42.5 -18t-11.5 -60v-209q0 -5 -0.5 -19t-1 -24t1 -24.5t5 -24t10.5 -18t18 -11.5q11 -2 19.5 -3.5t15 5.5t10.5 12.5t6.5 18t4 21t2 22t0.5 21.5t-0.5 18.5t-0.5 13.5h-57v86h148v-301h-74l-4 18q-27 -24 -70 -25.5t-72 19.5q-50 22 -59 117q-4 25 -4.5 50.5t1 59.5
t1.5 50zM2636 -563v231h35l41 -184l38 184h31l4 -231h-20l-4 170l-37 -170h-27l-31 170l-6 -170h-24zM2644 -270v231q7 0 21 0.5t23 1t21 -1.5t21 -6q27 -14 29 -57t-29 -54l35 -114h-35l-33 108h-24v-108h-29zM2666 709v241q4 0 20.5 0.5t25.5 0t22.5 -2.5t23 -8t15.5 -16
q7 -20 5 -48.5t-13 -39.5q-6 -4 -11.5 -7t-9.5 -4.5t-11.5 -2.5t-10.5 -1h-12.5h-12.5v-112h-31zM2673 -141q27 0 42 9t15 34q0 24 -13.5 30.5t-43.5 6.5v-80zM2697 842q29 0 33 4q18 10 18 47q0 19 -7 27.5t-15.5 10t-28.5 1.5v-90zM2785 1583v459q8 0 36 0.5t41.5 0
t35.5 -2t38.5 -6t31.5 -11.5q50 -30 51.5 -109.5t-51.5 -101.5l55 -229h-55l-66 213h-47v-213h-70zM2810 709v241h24v-215h62v-26h-86zM2824 -563v231h92v-22h-57v-70h47v-25h-47v-94h57v-20h-92zM2839 -61v22h122v-22h-45v-209h-34v209h-43zM2855 1843q40 0 63 4
q44 20 37 78q0 52 -37 62q-10 5 -20.5 6.5t-25.5 0.5t-17 -1v-150zM2873 1063v457h176v-54h-116v-149h92v-45h-92v-170h116v-39h-176zM2902 -31l154 721h90l-164 -721h-80zM2918 709v241h91v-18h-60v-86h49v-25h-49v-86h60v-26h-91zM2939 -563v231q11 0 31.5 2t34 1t24.5 -7
q26 -18 26 -58t-30 -50l35 -119h-31l-27 114h-26v-114h-37zM2976 -424q18 0 26.5 1t15.5 8t7 22q0 24 -12 31.5t-37 7.5v-70zM2976 -270v231h28v-102h66v102h33v-231h-33v108h-66v-108h-28zM3023 709l51 241h37l45 -241h-33l-12 65h-51l-6 -65h-31zM3062 793h49l-23 114z
M3062 1710l63 19q3 -60 25 -82q15 -17 38 -19t38 12q17 14 16 40.5t-16 48.5q-3 3 -11.5 13t-18.5 19.5t-22 18.5q-6 6 -39.5 36t-48.5 48q-19 32 -20.5 69t18.5 66.5t58 36.5q21 9 53 5.5t55 -18.5q32 -20 41 -96l-51 -16q-1 3 -4 16t-4.5 18.5t-5.5 16.5t-8.5 16.5
t-11.5 11.5t-15 9q-23 0 -41.5 -11t-22.5 -30q-3 -25 10.5 -48.5t28 -36t39.5 -30.5q8 -8 27 -28t28.5 -31t21 -29.5t15.5 -36.5q11 -55 -19.5 -97t-86.5 -42q-58 0 -92 36.5t-37 94.5zM3088 -401q0 34 19 55t55 14q29 -1 38 -21.5t9 -54.5h-33q0 2 1.5 10.5t1 16.5t-4.5 14
q-3 15 -20 16t-27 -11q-7 -8 -8.5 -22.5t0.5 -35.5t2 -24q0 -2 -2 -23t-0.5 -36.5t8.5 -24.5q10 -12 27 -10.5t20 16.5q4 6 4.5 13.5t-1 17.5t-1.5 14h33q0 -25 -3 -41.5t-16.5 -31.5t-39.5 -15q-24 0 -38.5 10.5t-19.5 32t-6 37.5t0.5 46t1.5 38zM3135 -270v231h91v-22h-56
v-80h45v-21h-45v-92h56v-16h-91zM3166 37v575h92q86 0 124 -43.5t38 -136.5v-215q0 -94 -35.5 -137t-113.5 -43h-105zM3170 776l35 12q0 -47 14 -53q39 -3 39 29q0 13 -9.5 26.5t-24.5 27.5t-19 20q-26 21 -32 48.5t18 51.5q25 21 63 8q33 -14 33 -59l-29 -4q-14 49 -36 47
q-14 -1 -17 -21q-9 -31 27 -63q5 -4 17.5 -12.5t18.5 -13.5t12 -14t7 -18q9 -32 -6.5 -55.5t-48.5 -23.5q-25 0 -42 19.5t-20 47.5zM3219 1245q0 15 -0.5 49t-0.5 53.5t2 46.5t6 48q26 78 112 78q100 0 119 -66q12 -26 14.5 -59t-1 -79.5t-3.5 -58.5t1.5 -36.5t0.5 -41
t-6 -32.5q-6 -44 -36.5 -67t-78.5 -23q-49 0 -83.5 25t-38.5 69q-7 36 -7 94zM3244 -563v231h33v-231h-33zM3258 127h33q27 15 27 33q4 27 4 84v155q0 57 -4 82q0 10 -8.5 21.5t-18.5 11.5h-33v-387zM3287 1204q0 -63 12 -81q7 -9 15 -13q34 -13 57 0q33 16 37 57
q2 6 2 15.5t-1 20.5t-1 14v165v11.5v12t-0.5 10.5t-1.5 11t-3 9.5t-5 9.5t-7 8q-40 24 -57 12q-19 0 -29 -8t-18 -28q-4 -20 -4 -45t2 -56.5t2 -46.5v-78zM3299 -563l49 231h35l54 -231h-31l-10 61h-50l-12 -61h-35zM3314 709v241h94v-18h-60v-86h48v-25h-48v-86h64v-26h-98
zM3326 -270v231h88v-22h-66v-80h48v-21h-48v-108h-22zM3348 -485h43l-20 112zM3408 1722v-20.5t1.5 -19.5t5 -22t10.5 -16t18 -14q9 -4 25.5 -4t25.5 4q33 18 33 62v209q0 56 -21 77q-18 25 -51 15q-17 -2 -27 -12t-16 -33q-7 -17 -8 -41t1.5 -57t2.5 -46v-82zM3430 37
l107 575h90l98 -575h-96l-18 137h-62l-20 -137h-99zM3437 -215q-2 6 -2 15.5t1 21t1 16.5v123h24v-102q0 -2 -1 -22t0 -31.5t3.5 -27.5t9.5 -24t19 -8q13 0 21 8t11 24.5t3.5 27t0 31.5t-0.5 22v102h28v-104v-16.5v-19t-1 -18.5t-2.5 -19.5t-4.5 -17t-7.5 -16t-11.5 -11.5
t-16 -9q-65 -18 -75 55zM3457 -563v231h31v-211h61v-20h-92zM3488 950h35l32 -174l37 174h29l-49 -241h-33zM3537 1063v457h43l129 -308v308h57v-457h-45l-135 309v-309h-49zM3564 256h30l-16 117zM3592 -270v231h35v-215h53v-16h-88zM3629 -332h29l35 -170l36 170h29
l-53 -231h-25zM3645 709v241h35v-241h-35zM3658 1583v459h37l129 -307v307h57v-459h-43l-129 307v-307h-51zM3705 -270v231h33v-215h57v-16h-90zM3711 776l31 12q0 -16 6.5 -32.5t17.5 -20.5q13 -2 21 5.5t8 23.5q3 13 -7 28.5t-18 22.5t-28 23q-15 14 -24 30.5t-7.5 36
t18.5 33.5q36 22 64 8q27 -14 31 -59l-29 -4q-3 29 -12.5 40t-20 5.5t-16.5 -19.5q-2 -10 -3 -16t4.5 -14t9 -12t10.5 -11l10 -10l6 -4q6 -5 8 -6.5t7.5 -6t7.5 -7l6 -7.5t6 -8.5t4 -8.5t2 -10q9 -31 -6 -55t-44 -24q-55 0 -63 67zM3738 37v575h69l99 -274v274h92v-575h-74
l-98 282v-282h-88zM3783 -563v231h94v-22h-62v-70h52v-25h-52v-94h62v-20h-94zM3836 1063v457h61v-418h111v-39h-172zM3854 709v241h35v-241h-35zM3877 -270l43 231h37l51 -231h-35l-8 57h-45l-17 -57h-26zM3901 -563v231q8 0 28.5 2t35.5 1t27 -7q26 -17 23.5 -58.5
t-32.5 -51.5l37 -117h-33l-30 114h-23v-114h-33zM3910 932v18h110v-18h-39v-223h-26v223h-45zM3920 -190h39l-21 106zM3926 1583l98 459h64l96 -459h-59l-23 109h-94l-25 -109h-57zM3934 -424q19 0 27.5 1t15 8t6.5 22q0 24 -11.5 31.5t-37.5 7.5v-70zM4018 1741h76l-35 207
zM4030 -270v231h21l65 -154v154h31v-231h-22l-62 157v-157h-33zM4030 1520h58l67 -224l70 224h64q-9 -31 -31 -96t-33 -101l-31 -90q-4 -9 -5 -20t0 -25t1 -17v-108h-63v90v70q-17 58 -33 88zM4045 -496l31 7q0 -38 18 -46q16 -7 27.5 1.5t11.5 23.5q0 30 -57 68
q-24 24 -29.5 53.5t18.5 46.5q39 27 64 8q26 -9 26 -51l-22 -14q-1 3 -2 10.5t-2 11.5t-3 9.5t-5 8.5t-7 5q-19 10 -34 -13q-3 -6 -3 -12.5t1.5 -11t6 -9.5t8 -8t10 -8t9.5 -8q3 -4 16.5 -17.5t20 -24.5t6.5 -26q11 -28 -2 -50.5t-43 -22.5q-61 0 -65 69zM4047 37v575h164
q41 0 74.5 -38t33.5 -111q0 -98 -49 -125q55 -44 55 -150q0 -72 -33.5 -111.5t-72.5 -39.5h-172zM4139 123h45q24 0 34 28t7 66q-8 70 -49 70h-37v-164zM4139 369h37q43 0 43 75q0 86 -45 86h-35v-161zM4184 -270v231q2 0 22 0.5t29.5 0t25.5 -4.5t28 -12q10 -8 13 -23
t1 -44.5t-2 -33.5q0 -6 1 -21.5t0.5 -24.5t-2.5 -21t-8 -20t-16 -13q-8 -7 -21.5 -10.5t-22.5 -4t-27.5 0t-20.5 0.5zM4190 -563v231h29v-231h-29zM4217 -254q16 0 23.5 1.5t16 10.5t13.5 27v119q-1 24 -13.5 29.5t-39.5 5.5v-193zM4231 1583v459h66v-416h114v-43h-180z
M4254 -442q0 25 0.5 36.5t4 30.5t11 27t22 13.5t35.5 2.5q12 0 21.5 -3.5t15.5 -8t10.5 -13.5t6.5 -14.5t3 -18t1 -18v-19.5v-17v-8q0 -26 -1 -40t-6.5 -34t-19.5 -29.5t-37 -9.5q-12 0 -22 2.5t-16.5 8.5t-11.5 10.5t-8 15t-5 15.5t-3 18.5t-1 17.5v19v16zM4295 -424
q0 -4 -4 -34.5t-2 -51.5t14 -25q46 -25 50 50q1 9 1 30q0 5 1 18.5t1 24.5t-1 23.5t-4.5 20.5t-10.5 10q-45 19 -45 -35v-31zM4321 1063v61h64v-61h-64zM4321 1520h64l-23 -363h-20zM4372 244v368h99v-356q0 -85 6 -113q17 -26 45 -20q21 11 25 21q2 6 2 16q6 27 6 84v368
h92v-368q0 -93 -13 -129q-14 -41 -46 -60q-52 -33 -132 -14q-36 14 -55.5 47t-21.5 72q-7 34 -7 84zM4420 -563v231h18l72 -155v155h24v-231h-22l-74 162v-162h-18zM4696 37v575h168q38 0 71 -38t33 -111q0 -45 -17 -89.5t-52 -68.5l63 -268h-94l-51 250h-27v-250h-94z
M4790 369h51q16 9 22.5 48.5t-5 76t-37.5 36.5h-31v-161zM4993 612h98l39 -231l41 231h101l-97 -344v-231h-96v248z" />
    <glyph glyph-name="uni0030" unicode="1" horiz-adv-x="6334" 
d="M3463 1579q-102 0 -117 98q-6 29 -6 84q0 15 -0.5 50.5t-0.5 55.5t2 47.5t7 47.5q16 78 109 82q42 0 77 -16t46 -50q8 -20 11.5 -47.5t3.5 -49t-1.5 -55t-1.5 -48.5q0 -76 -6 -105q-19 -94 -123 -94zM1421 41l9 575h92l69 -360l66 360h98l2 -575h-80l-10 240l-41 -240
h-67l-48 233l-4 -233h-86zM1833 41v575h74l96 -274v274h92v-575h-72l-100 283v-283h-90zM2132 -401q0 34 19.5 55t56.5 14q22 -1 33 -14t12.5 -25.5t1.5 -36.5h-29q0 34 -2 41q-6 15 -24 16t-27 -11q-4 -6 -6 -18.5t-2.5 -21t0 -24.5t0.5 -18t-0.5 -13.5t0 -18.5t1.5 -18
t3.5 -19.5t7.5 -14.5q6 -12 23.5 -10.5t23.5 16.5q2 7 2 45h29q0 -25 -2.5 -41.5t-15.5 -31.5t-37 -15q-17 0 -30 5.5t-20.5 17.5t-11.5 23.5t-5.5 29.5t-1.5 30t0.5 31.5t0.5 26.5zM2159 41v104h98v-104h-98zM2284 -442q0 25 0.5 36.5t3.5 30.5t10 27t20 13.5t33 2.5
q23 -1 37 -10t19.5 -27.5t6.5 -31.5t1 -36v-7v-27.5t-1.5 -26t-6 -27t-11 -20t-19 -16t-28.5 -4.5q-19 0 -32 6.5t-19.5 14t-10 24.5t-4 24.5t0 29t0.5 24.5zM2288 1583v459h98q85 0 111 -51q24 -40 18.5 -92t-41.5 -78q-6 -6 -13.5 -11t-18 -8t-17 -4.5t-20.5 -2.5t-18 -1
h-20h-18v-211h-61zM2292 244l92 4q0 -70 20 -103q16 -27 37 -18q25 6 25 47q0 21 -10.5 43.5t-22 36t-31.5 35t-26 28.5q-8 11 -29 30t-25 30q-37 60 -22 135q2 62 60 95t118 5q76 -37 76 -184l-88 -4q-2 9 -4.5 41t-9 49.5t-23.5 20.5q-30 1 -39.5 -26.5t-1.5 -47.5
q4 -12 11.5 -22.5t12.5 -16t16 -15.5t15 -14l45 -51q80 -80 68 -192q-2 -39 -28.5 -72t-71.5 -43q-43 -6 -82.5 11.5t-57.5 55.5q-24 65 -24 142zM2292 1233v287h59v-308q0 -29 1 -42.5t10 -35t28 -32.5q46 -13 65 19.5t19 82.5v146v170h63v-209q0 -10 1 -43t1 -51.5t-4 -48
t-11.5 -47t-24 -34.5t-39.5 -24q-39 -21 -89 -3.5t-67 62.5q-12 31 -12 111zM2312 -424q0 -4 -0.5 -20t-0.5 -28t1 -26.5t5.5 -24t11.5 -12.5q48 -25 51 50v30q0 3 0.5 18.5t0 25t-1.5 22.5t-5 21t-11 10q-24 11 -37.5 -0.5t-13.5 -34.5v-31zM2349 1843q51 0 68 4
q39 9 39 64q0 16 -0.5 25t-4 22t-12 21t-22.5 12q-11 4 -22 4.5t-25 -1t-21 -1.5v-150zM2372 -270v231h88v-22h-54v-80h43v-21h-43v-108h-34zM2443 -563v231h37l43 -184l37 184h33l2 -231h-23v170l-37 -170h-26l-37 170v-170h-29zM2480 -147q0 22 0.5 33.5t4 29.5t10.5 27
t21 16.5t34 7.5q12 -2 21.5 -7t15.5 -9.5t10.5 -15.5t7 -16t3.5 -19.5t1 -18v-20v-17.5q0 -17 -0.5 -26.5t-2 -25.5t-5.5 -25.5t-10.5 -19.5t-18 -14.5t-26.5 -4.5q-19 0 -32.5 7.5t-20 16.5t-10 28t-3.5 29v33v11zM2513 -141q0 -2 -1.5 -22.5t-1.5 -35t6 -30.5t19 -21
q14 -4 23.5 3t12.5 23.5t4 28t1 31.5q0 3 1 23t1 33t-4.5 27.5t-13.5 17.5q-18 12 -32.5 -2.5t-14.5 -38.5v-37zM2560 1583v459h174v-49h-113v-150h95v-49h-95v-168h117v-43h-178zM2587 1186l63 18q0 -3 2 -18t3 -20t3.5 -15.5t6 -17t8.5 -11.5q14 -16 35.5 -18t33.5 12
q20 18 20 43.5t-14 46.5q-3 4 -12 16.5t-18 21t-21 13.5q-6 6 -28.5 24.5t-37.5 33.5t-24 31q-18 29 -19 64.5t18 66.5t54 43q57 10 111 -19q39 -29 39 -98l-49 -19q-4 75 -49 82q-22 7 -38.5 -2.5t-19.5 -29.5q-3 -9 -3.5 -18.5t1.5 -17t7 -15.5t10 -14t13 -14t14.5 -13
t15.5 -12.5t14 -12.5q4 -3 23 -19.5t25 -23t18 -21t17 -28.5t7 -31q12 -53 -18.5 -95t-85.5 -42t-87.5 36t-37.5 93zM2601 330q0 17 -1.5 53.5t-1 63t4.5 49.5q14 89 84 120q80 19 127 -12q18 -11 31 -28.5t19 -33t9 -40t3.5 -37.5t0.5 -39v-12h-94q0 74 -4.5 93t-23.5 28
q-31 4 -42.5 -18t-11.5 -60v-209q0 -5 -0.5 -19t-1 -24t1 -24.5t5 -24t10.5 -18t18 -11.5q11 -2 19.5 -3.5t15 5.5t10.5 12.5t6.5 18t4 21t2 22t0.5 21.5t-0.5 18.5t-0.5 13.5h-57v86h148v-301h-74l-4 18q-27 -24 -70 -25.5t-72 19.5q-50 22 -59 117q-4 25 -4.5 50.5t1 59.5
t1.5 50zM2636 -563v231h35l41 -184l38 184h31l4 -231h-20l-4 170l-37 -170h-27l-31 170l-6 -170h-24zM2644 -270v231q7 0 21 0.5t23 1t21 -1.5t21 -6q27 -14 29 -57t-29 -54l35 -114h-35l-33 108h-24v-108h-29zM2666 709v241q4 0 20.5 0.5t25.5 0t22.5 -2.5t23 -8t15.5 -16
q7 -20 5 -48.5t-13 -39.5q-6 -4 -11.5 -7t-9.5 -4.5t-11.5 -2.5t-10.5 -1h-12.5h-12.5v-112h-31zM2673 -141q27 0 42 9t15 34q0 24 -13.5 30.5t-43.5 6.5v-80zM2697 842q29 0 33 4q18 10 18 47q0 19 -7 27.5t-15.5 10t-28.5 1.5v-90zM2785 1583v459q8 0 36 0.5t41.5 0
t35.5 -2t38.5 -6t31.5 -11.5q50 -30 51.5 -109.5t-51.5 -101.5l55 -229h-55l-66 213h-47v-213h-70zM2810 709v241h24v-215h62v-26h-86zM2824 -563v231h92v-22h-57v-70h47v-25h-47v-94h57v-20h-92zM2839 -61v22h122v-22h-45v-209h-34v209h-43zM2855 1843q40 0 63 4
q44 20 37 78q0 52 -37 62q-10 5 -20.5 6.5t-25.5 0.5t-17 -1v-150zM2873 1063v457h176v-54h-116v-149h92v-45h-92v-170h116v-39h-176zM2902 -31l154 721h90l-164 -721h-80zM2918 709v241h91v-18h-60v-86h49v-25h-49v-86h60v-26h-91zM2939 -563v231q11 0 31.5 2t34 1t24.5 -7
q26 -18 26 -58t-30 -50l35 -119h-31l-27 114h-26v-114h-37zM2976 -424q18 0 26.5 1t15.5 8t7 22q0 24 -12 31.5t-37 7.5v-70zM2976 -270v231h28v-102h66v102h33v-231h-33v108h-66v-108h-28zM3023 709l51 241h37l45 -241h-33l-12 65h-51l-6 -65h-31zM3062 793h49l-23 114z
M3062 1710l63 19q3 -60 25 -82q15 -17 38 -19t38 12q17 14 16 40.5t-16 48.5q-3 3 -11.5 13t-18.5 19.5t-22 18.5q-6 6 -39.5 36t-48.5 48q-19 32 -20.5 69t18.5 66.5t58 36.5q21 9 53 5.5t55 -18.5q32 -20 41 -96l-51 -16q-1 3 -4 16t-4.5 18.5t-5.5 16.5t-8.5 16.5
t-11.5 11.5t-15 9q-23 0 -41.5 -11t-22.5 -30q-3 -25 10.5 -48.5t28 -36t39.5 -30.5q8 -8 27 -28t28.5 -31t21 -29.5t15.5 -36.5q11 -55 -19.5 -97t-86.5 -42q-58 0 -92 36.5t-37 94.5zM3088 -401q0 34 19 55t55 14q29 -1 38 -21.5t9 -54.5h-33q0 2 1.5 10.5t1 16.5t-4.5 14
q-3 15 -20 16t-27 -11q-7 -8 -8.5 -22.5t0.5 -35.5t2 -24q0 -2 -2 -23t-0.5 -36.5t8.5 -24.5q10 -12 27 -10.5t20 16.5q4 6 4.5 13.5t-1 17.5t-1.5 14h33q0 -25 -3 -41.5t-16.5 -31.5t-39.5 -15q-24 0 -38.5 10.5t-19.5 32t-6 37.5t0.5 46t1.5 38zM3135 -270v231h91v-22h-56
v-80h45v-21h-45v-92h56v-16h-91zM3166 37v575h92q86 0 124 -43.5t38 -136.5v-215q0 -94 -35.5 -137t-113.5 -43h-105zM3170 776l35 12q0 -47 14 -53q39 -3 39 29q0 13 -9.5 26.5t-24.5 27.5t-19 20q-26 21 -32 48.5t18 51.5q25 21 63 8q33 -14 33 -59l-29 -4q-14 49 -36 47
q-14 -1 -17 -21q-9 -31 27 -63q5 -4 17.5 -12.5t18.5 -13.5t12 -14t7 -18q9 -32 -6.5 -55.5t-48.5 -23.5q-25 0 -42 19.5t-20 47.5zM3219 1245q0 15 -0.5 49t-0.5 53.5t2 46.5t6 48q26 78 112 78q100 0 119 -66q12 -26 14.5 -59t-1 -79.5t-3.5 -58.5t1.5 -36.5t0.5 -41
t-6 -32.5q-6 -44 -36.5 -67t-78.5 -23q-49 0 -83.5 25t-38.5 69q-7 36 -7 94zM3244 -563v231h33v-231h-33zM3258 127h33q27 15 27 33q4 27 4 84v155q0 57 -4 82q0 10 -8.5 21.5t-18.5 11.5h-33v-387zM3287 1204q0 -63 12 -81q7 -9 15 -13q34 -13 57 0q33 16 37 57
q2 6 2 15.5t-1 20.5t-1 14v165v11.5v12t-0.5 10.5t-1.5 11t-3 9.5t-5 9.5t-7 8q-40 24 -57 12q-19 0 -29 -8t-18 -28q-4 -20 -4 -45t2 -56.5t2 -46.5v-78zM3299 -563l49 231h35l54 -231h-31l-10 61h-50l-12 -61h-35zM3314 709v241h94v-18h-60v-86h48v-25h-48v-86h64v-26h-98
zM3326 -270v231h88v-22h-66v-80h48v-21h-48v-108h-22zM3348 -485h43l-20 112zM3408 1722v-20.5t1.5 -19.5t5 -22t10.5 -16t18 -14q9 -4 25.5 -4t25.5 4q33 18 33 62v209q0 56 -21 77q-18 25 -51 15q-17 -2 -27 -12t-16 -33q-7 -17 -8 -41t1.5 -57t2.5 -46v-82zM3430 37
l107 575h90l98 -575h-96l-18 137h-62l-20 -137h-99zM3437 -215q-2 6 -2 15.5t1 21t1 16.5v123h24v-102q0 -2 -1 -22t0 -31.5t3.5 -27.5t9.5 -24t19 -8q13 0 21 8t11 24.5t3.5 27t0 31.5t-0.5 22v102h28v-104v-16.5v-19t-1 -18.5t-2.5 -19.5t-4.5 -17t-7.5 -16t-11.5 -11.5
t-16 -9q-65 -18 -75 55zM3457 -563v231h31v-211h61v-20h-92zM3488 950h35l32 -174l37 174h29l-49 -241h-33zM3537 1063v457h43l129 -308v308h57v-457h-45l-135 309v-309h-49zM3564 256h30l-16 117zM3592 -270v231h35v-215h53v-16h-88zM3629 -332h29l35 -170l36 170h29
l-53 -231h-25zM3645 709v241h35v-241h-35zM3658 1583v459h37l129 -307v307h57v-459h-43l-129 307v-307h-51zM3705 -270v231h33v-215h57v-16h-90zM3711 776l31 12q0 -16 6.5 -32.5t17.5 -20.5q13 -2 21 5.5t8 23.5q3 13 -7 28.5t-18 22.5t-28 23q-15 14 -24 30.5t-7.5 36
t18.5 33.5q36 22 64 8q27 -14 31 -59l-29 -4q-3 29 -12.5 40t-20 5.5t-16.5 -19.5q-2 -10 -3 -16t4.5 -14t9 -12t10.5 -11l10 -10l6 -4q6 -5 8 -6.5t7.5 -6t7.5 -7l6 -7.5t6 -8.5t4 -8.5t2 -10q9 -31 -6 -55t-44 -24q-55 0 -63 67zM3738 37v575h69l99 -274v274h92v-575h-74
l-98 282v-282h-88zM3783 -563v231h94v-22h-62v-70h52v-25h-52v-94h62v-20h-94zM3836 1063v457h61v-418h111v-39h-172zM3854 709v241h35v-241h-35zM3877 -270l43 231h37l51 -231h-35l-8 57h-45l-17 -57h-26zM3901 -563v231q8 0 28.5 2t35.5 1t27 -7q26 -17 23.5 -58.5
t-32.5 -51.5l37 -117h-33l-30 114h-23v-114h-33zM3910 932v18h110v-18h-39v-223h-26v223h-45zM3920 -190h39l-21 106zM3926 1583l98 459h64l96 -459h-59l-23 109h-94l-25 -109h-57zM3934 -424q19 0 27.5 1t15 8t6.5 22q0 24 -11.5 31.5t-37.5 7.5v-70zM4018 1741h76l-35 207
zM4030 -270v231h21l65 -154v154h31v-231h-22l-62 157v-157h-33zM4030 1520h58l67 -224l70 224h64q-9 -31 -31 -96t-33 -101l-31 -90q-4 -9 -5 -20t0 -25t1 -17v-108h-63v90v70q-17 58 -33 88zM4045 -496l31 7q0 -38 18 -46q16 -7 27.5 1.5t11.5 23.5q0 30 -57 68
q-24 24 -29.5 53.5t18.5 46.5q39 27 64 8q26 -9 26 -51l-22 -14q-1 3 -2 10.5t-2 11.5t-3 9.5t-5 8.5t-7 5q-19 10 -34 -13q-3 -6 -3 -12.5t1.5 -11t6 -9.5t8 -8t10 -8t9.5 -8q3 -4 16.5 -17.5t20 -24.5t6.5 -26q11 -28 -2 -50.5t-43 -22.5q-61 0 -65 69zM4047 37v575h164
q41 0 74.5 -38t33.5 -111q0 -98 -49 -125q55 -44 55 -150q0 -72 -33.5 -111.5t-72.5 -39.5h-172zM4139 123h45q24 0 34 28t7 66q-8 70 -49 70h-37v-164zM4139 369h37q43 0 43 75q0 86 -45 86h-35v-161zM4184 -270v231q2 0 22 0.5t29.5 0t25.5 -4.5t28 -12q10 -8 13 -23
t1 -44.5t-2 -33.5q0 -6 1 -21.5t0.5 -24.5t-2.5 -21t-8 -20t-16 -13q-8 -7 -21.5 -10.5t-22.5 -4t-27.5 0t-20.5 0.5zM4190 -563v231h29v-231h-29zM4217 -254q16 0 23.5 1.5t16 10.5t13.5 27v119q-1 24 -13.5 29.5t-39.5 5.5v-193zM4231 1583v459h66v-416h114v-43h-180z
M4254 -442q0 25 0.5 36.5t4 30.5t11 27t22 13.5t35.5 2.5q12 0 21.5 -3.5t15.5 -8t10.5 -13.5t6.5 -14.5t3 -18t1 -18v-19.5v-17v-8q0 -26 -1 -40t-6.5 -34t-19.5 -29.5t-37 -9.5q-12 0 -22 2.5t-16.5 8.5t-11.5 10.5t-8 15t-5 15.5t-3 18.5t-1 17.5v19v16zM4295 -424
q0 -4 -4 -34.5t-2 -51.5t14 -25q46 -25 50 50q1 9 1 30q0 5 1 18.5t1 24.5t-1 23.5t-4.5 20.5t-10.5 10q-45 19 -45 -35v-31zM4321 1063v61h64v-61h-64zM4321 1520h64l-23 -363h-20zM4372 244v368h99v-356q0 -85 6 -113q17 -26 45 -20q21 11 25 21q2 6 2 16q6 27 6 84v368
h92v-368q0 -93 -13 -129q-14 -41 -46 -60q-52 -33 -132 -14q-36 14 -55.5 47t-21.5 72q-7 34 -7 84zM4420 -563v231h18l72 -155v155h24v-231h-22l-74 162v-162h-18zM4696 37v575h168q38 0 71 -38t33 -111q0 -45 -17 -89.5t-52 -68.5l63 -268h-94l-51 250h-27v-250h-94z
M4790 369h51q16 9 22.5 48.5t-5 76t-37.5 36.5h-31v-161zM4993 612h98l39 -231l41 231h101l-97 -344v-231h-96v248z" />
    <glyph glyph-name="colon" unicode=":" horiz-adv-x="966" 
d="M528 780q-174 0 -299 96t-125 228q0 135 124.5 230.5t299.5 95.5q177 0 301.5 -95.5t124.5 -230.5q0 -133 -125 -228.5t-301 -95.5zM-29 324q0 135 123.5 230t298.5 95q177 0 301.5 -95t124.5 -230q0 -133 -125 -228.5t-301 -95.5q-174 0 -298 96t-124 228z" />
    <glyph glyph-name="semicolon" unicode=";" horiz-adv-x="966" 
d="M299 -354l-332 63l154 860h637zM104 1104q0 135 124.5 230.5t299.5 95.5q177 0 301.5 -95.5t124.5 -230.5q0 -133 -125 -228.5t-301 -95.5q-174 0 -299 96t-125 228z" />
    <glyph glyph-name="less" unicode="&#x3c;" horiz-adv-x="1114" 
d="M901 53l-878 525l79 507l1035 459l-84 -551l-500 -157l442 -158z" />
    <glyph glyph-name="equal" unicode="=" horiz-adv-x="1642" 
d="M98 1071l72 473h1472l-73 -473h-1471zM0 420l72 469h1472l-74 -469h-1470z" />
    <glyph glyph-name="greater" unicode="&#x3e;" horiz-adv-x="1114" 
d="M-39 53l84 549l500 158l-443 158l95 626l878 -524l-80 -508z" />
    <glyph glyph-name="question" unicode="?" horiz-adv-x="1779" 
d="M594 1245q42 1 136.5 1.5t133.5 2t93.5 7.5t91.5 18q91 29 138 83.5t45 106.5t-42.5 95t-108.5 53q-144 21 -247 -42.5t-107 -193.5h-629q59 344 313 521.5t699 177.5q157 0 291 -29.5t238.5 -87t166.5 -151.5t68 -214q10 -174 -95 -312.5t-289 -221t-425 -109.5
l-90 -149q-34 2 -115.5 1t-165.5 -3l-84 -2zM371 340q0 141 111 239.5t268 98.5q156 0 266 -98.5t110 -239.5t-110.5 -240.5t-265.5 -99.5q-157 0 -268 99.5t-111 240.5zM973 797q7 1 7.5 2t-5.5 2z" />
    <glyph glyph-name="at" unicode="@" horiz-adv-x="2551" 
d="M1004 -594q-145 0 -272.5 29.5t-229 84t-185 131t-142.5 170.5t-99 202.5t-58 227t-16 244t25 253.5q38 217 123 412t217 358.5t300 282t382.5 185t453.5 66.5q173 0 321.5 -34.5t263 -98t203 -153.5t145.5 -202t86.5 -242t29.5 -274.5t-29 -299.5q-64 -336 -267 -523
q-154 -141 -336 -156q-167 -13 -282 85q-103 87 -127 237q-94 -161 -229.5 -257.5t-275.5 -96.5q-135 0 -233 90.5t-136 247.5t-4 342q35 185 132.5 342.5t229.5 248.5t267 91q194 0 307 -182l24 153h422l-119 -731q-22 -135 31 -187q42 -41 104 -1q83 54 135 214
q13 39 23 83q32 143 33.5 272.5t-25.5 240t-85.5 200t-144 152t-204 96.5t-262.5 34q-215 0 -407 -75t-338 -207.5t-249.5 -315t-150.5 -397.5q-33 -143 -29.5 -275t32 -246.5t91 -209t147.5 -161.5t201 -104t251 -37q302 0 553 164l227 -217q-180 -112 -395.5 -184
t-429.5 -72zM1114 717q-25 -127 24.5 -217t143.5 -90q45 0 79 23t57.5 67.5t38.5 95.5t28 121l12 80q31 225 -100 225q-93 0 -175.5 -89t-107.5 -216z" />
    <glyph glyph-name="A" unicode="A" horiz-adv-x="1900" 
d="M-131 0l721 1896h1134l45 -1896h-682v354h-415l-121 -354h-682zM823 799h264v780z" />
    <glyph glyph-name="A" unicode="a" horiz-adv-x="1900" 
d="M-131 0l721 1896h1134l45 -1896h-682v354h-415l-121 -354h-682zM823 799h264v780z" />
    <glyph glyph-name="B" unicode="B" horiz-adv-x="1785" 
d="M-45 0l313 1896h682h250q98 0 179 -15t139.5 -42t102 -66t69 -84.5t38 -98.5t11.5 -108.5t-13 -115.5q-24 -124 -112.5 -217t-227.5 -152q313 -108 295 -417q-6 -112 -65.5 -216t-160.5 -185t-248.5 -130t-317.5 -49h-254h-680zM713 469h135q88 0 144 33t69 98
q31 141 -139 141h-164zM829 1169h78q84 0 138 40t69 108q15 71 -24 117.5t-123 46.5h-86z" />
    <glyph glyph-name="B" unicode="b" horiz-adv-x="1785" 
d="M-45 0l313 1896h682h250q98 0 179 -15t139.5 -42t102 -66t69 -84.5t38 -98.5t11.5 -108.5t-13 -115.5q-24 -124 -112.5 -217t-227.5 -152q313 -108 295 -417q-6 -112 -65.5 -216t-160.5 -185t-248.5 -130t-317.5 -49h-254h-680zM713 469h135q88 0 144 33t69 98
q31 141 -139 141h-164zM829 1169h78q84 0 138 40t69 108q15 71 -24 117.5t-123 46.5h-86z" />
    <glyph glyph-name="C" unicode="C" horiz-adv-x="1988" 
d="M829 -170q-137 0 -254.5 27t-207 77.5t-160 122t-113.5 159.5t-68.5 191.5t-23.5 217.5t21 237q31 172 98.5 326t172 283.5t238 224t304 147.5t360.5 53q147 0 273 -44t219.5 -125t157.5 -191t92 -246t18 -286h-645q-3 127 -59 202.5t-165 75.5q-137 0 -233 -119
t-127 -301q-19 -117 -7 -209.5t69.5 -149.5t150.5 -57q110 0 193 74.5t129 200.5h645q-55 -187 -161 -350.5t-245.5 -283t-314 -188.5t-357.5 -69z" />
    <glyph glyph-name="C" unicode="c" horiz-adv-x="1988" 
d="M829 -170q-137 0 -254.5 27t-207 77.5t-160 122t-113.5 159.5t-68.5 191.5t-23.5 217.5t21 237q31 172 98.5 326t172 283.5t238 224t304 147.5t360.5 53q147 0 273 -44t219.5 -125t157.5 -191t92 -246t18 -286h-645q-3 127 -59 202.5t-165 75.5q-137 0 -233 -119
t-127 -301q-19 -117 -7 -209.5t69.5 -149.5t150.5 -57q110 0 193 74.5t129 200.5h645q-55 -187 -161 -350.5t-245.5 -283t-314 -188.5t-357.5 -69z" />
    <glyph glyph-name="D" unicode="D" horiz-adv-x="1861" 
d="M-33 0l312 1896h682h147q111 0 210 -27t175 -76.5t139 -118t102.5 -151t64.5 -177t26 -195t-13 -205.5q-25 -141 -83.5 -277t-151 -257t-208 -213t-264 -145.5t-308.5 -53.5h-148h-682zM739 547h68q51 0 106.5 28t108 81t92.5 141t53 196q12 99 4 172.5t-25.5 124
t-46 81.5t-58.5 45t-62 14h-94z" />
    <glyph glyph-name="D" unicode="d" horiz-adv-x="1861" 
d="M-33 0l312 1896h682h147q111 0 210 -27t175 -76.5t139 -118t102.5 -151t64.5 -177t26 -195t-13 -205.5q-25 -141 -83.5 -277t-151 -257t-208 -213t-264 -145.5t-308.5 -53.5h-148h-682zM739 547h68q51 0 106.5 28t108 81t92.5 141t53 196q12 99 4 172.5t-25.5 124
t-46 81.5t-58.5 45t-62 14h-94z" />
    <glyph glyph-name="E" unicode="E" horiz-adv-x="1675" 
d="M-55 0l313 1896h1468l-88 -483h-778l-37 -223h680l-88 -485h-672l-36 -220h870l-86 -485h-1546z" />
    <glyph glyph-name="E" unicode="e" horiz-adv-x="1675" 
d="M-55 0l313 1896h1468l-88 -483h-778l-37 -223h680l-88 -485h-672l-36 -220h870l-86 -485h-1546z" />
    <glyph glyph-name="F" unicode="F" horiz-adv-x="1536" 
d="M-66 0l316 1896h1466l-88 -497h-780l-72 -432h705l-88 -498h-699l-78 -469h-682z" />
    <glyph glyph-name="F" unicode="f" horiz-adv-x="1536" 
d="M-66 0l316 1896h1466l-88 -497h-780l-72 -432h705l-88 -498h-699l-78 -469h-682z" />
    <glyph glyph-name="G" unicode="G" horiz-adv-x="2015" 
d="M852 -170q-137 0 -254.5 27t-207 77.5t-160 122t-114 159.5t-68.5 191.5t-23.5 217.5t20.5 237q30 171 97 325.5t172 284t239 224t305 147.5t361 53q169 0 309.5 -59t236.5 -163.5t151.5 -248t61.5 -311.5h-661q-21 79 -73 123.5t-136 44.5q-136 0 -231 -118.5
t-129 -301.5q-17 -117 -4.5 -209.5t69 -149.5t148.5 -57q162 0 272 170h-303l74 406h983l-70 -330q-57 -183 -163 -341t-244 -273.5t-308.5 -181.5t-349.5 -66z" />
    <glyph glyph-name="G" unicode="g" horiz-adv-x="2015" 
d="M852 -170q-137 0 -254.5 27t-207 77.5t-160 122t-114 159.5t-68.5 191.5t-23.5 217.5t20.5 237q30 171 97 325.5t172 284t239 224t305 147.5t361 53q169 0 309.5 -59t236.5 -163.5t151.5 -248t61.5 -311.5h-661q-21 79 -73 123.5t-136 44.5q-136 0 -231 -118.5
t-129 -301.5q-17 -117 -4.5 -209.5t69 -149.5t148.5 -57q162 0 272 170h-303l74 406h983l-70 -330q-57 -183 -163 -341t-244 -273.5t-308.5 -181.5t-349.5 -66z" />
    <glyph glyph-name="H" unicode="H" horiz-adv-x="2097" 
d="M-53 0l315 1896h682l-117 -706h541l117 706h682l-312 -1896h-681l114 705h-543l-116 -705h-682z" />
    <glyph glyph-name="H" unicode="h" horiz-adv-x="2097" 
d="M-53 0l315 1896h682l-117 -706h541l117 706h682l-312 -1896h-681l114 705h-543l-116 -705h-682z" />
    <glyph glyph-name="I" unicode="I" horiz-adv-x="950" 
d="M-6 0l313 1896h682l-313 -1896h-682z" />
    <glyph glyph-name="I" unicode="&#x131;" horiz-adv-x="950" 
d="M-6 0l313 1896h682l-313 -1896h-682z" />
    <glyph glyph-name="I" unicode="i" horiz-adv-x="950" 
d="M-6 0l313 1896h682l-313 -1896h-682z" />
    <glyph glyph-name="J" unicode="J" horiz-adv-x="1880" 
d="M684 -170q-198 0 -347 63t-234 179.5t-109.5 281t26.5 367.5h642q-29 -130 5 -202.5t124 -72.5q62 0 111.5 32t84 91.5t58 130t40.5 162.5l170 1034h695l-170 -1034q-31 -175 -90.5 -327t-153 -283t-215 -223.5t-284.5 -145.5t-353 -53z" />
    <glyph glyph-name="J" unicode="&#x237;" horiz-adv-x="1880" 
d="M684 -170q-198 0 -347 63t-234 179.5t-109.5 281t26.5 367.5h642q-29 -130 5 -202.5t124 -72.5q62 0 111.5 32t84 91.5t58 130t40.5 162.5l170 1034h695l-170 -1034q-31 -175 -90.5 -327t-153 -283t-215 -223.5t-284.5 -145.5t-353 -53z" />
    <glyph glyph-name="J" unicode="j" horiz-adv-x="1880" 
d="M684 -170q-198 0 -347 63t-234 179.5t-109.5 281t26.5 367.5h642q-29 -130 5 -202.5t124 -72.5q62 0 111.5 32t84 91.5t58 130t40.5 162.5l170 1034h695l-170 -1034q-31 -175 -90.5 -327t-153 -283t-215 -223.5t-284.5 -145.5t-353 -53z" />
    <glyph glyph-name="K" unicode="K" horiz-adv-x="2011" 
d="M1217 0l-429 885l-145 -885h-682l311 1896h682l-135 -823l662 823h856l-813 -890l530 -1006h-837z" />
    <glyph glyph-name="K" unicode="k" horiz-adv-x="2011" 
d="M1217 0l-429 885l-145 -885h-682l311 1896h682l-135 -823l662 823h856l-813 -890l530 -1006h-837z" />
    <glyph glyph-name="L" unicode="L" horiz-adv-x="1650" 
d="M-49 0l311 1896h682l-221 -1345h860l-86 -551h-1546z" />
    <glyph glyph-name="L" unicode="l" horiz-adv-x="1650" 
d="M-49 0l311 1896h682l-221 -1345h860l-86 -551h-1546z" />
    <glyph glyph-name="M" unicode="M" horiz-adv-x="2562" 
d="M885 0l-90 1038l-172 -1038h-656l316 1896h974l66 -804l369 804h950l-311 -1896h-656l174 1057l-493 -1057h-471z" />
    <glyph glyph-name="M" unicode="m" horiz-adv-x="2562" 
d="M885 0l-90 1038l-172 -1038h-656l316 1896h974l66 -804l369 804h950l-311 -1896h-656l174 1057l-493 -1057h-471z" />
    <glyph glyph-name="N" unicode="N" horiz-adv-x="2129" 
d="M1190 0l-385 950l-156 -950h-682l312 1896h682l403 -837l137 837h682l-311 -1896h-682z" />
    <glyph glyph-name="N" unicode="n" horiz-adv-x="2129" 
d="M1190 0l-385 950l-156 -950h-682l312 1896h682l403 -837l137 837h682l-311 -1896h-682z" />
    <glyph glyph-name="O" unicode="O" horiz-adv-x="2074" 
d="M831 -170q-136 0 -253.5 27t-207 77.5t-160.5 122t-114.5 159.5t-69 191.5t-24 217.5t20.5 237q31 172 99 326t173 283.5t239 224t305 147.5t361 53q136 0 253 -27.5t206.5 -78t160.5 -122.5t114.5 -160.5t68.5 -192t23.5 -217.5t-21.5 -236q-30 -172 -97.5 -326.5
t-172.5 -283.5t-238.5 -223t-304 -146.5t-361.5 -52.5zM727 862q-17 -117 -4.5 -209.5t69 -149.5t148.5 -57q137 0 233 118t127 298q18 87 12 163.5t-29.5 133.5t-74 90t-121.5 33q-136 0 -231 -118.5t-129 -301.5z" />
    <glyph glyph-name="O" unicode="o" horiz-adv-x="2074" 
d="M831 -170q-136 0 -253.5 27t-207 77.5t-160.5 122t-114.5 159.5t-69 191.5t-24 217.5t20.5 237q31 172 99 326t173 283.5t239 224t305 147.5t361 53q136 0 253 -27.5t206.5 -78t160.5 -122.5t114.5 -160.5t68.5 -192t23.5 -217.5t-21.5 -236q-30 -172 -97.5 -326.5
t-172.5 -283.5t-238.5 -223t-304 -146.5t-361.5 -52.5zM727 862q-17 -117 -4.5 -209.5t69 -149.5t148.5 -57q137 0 233 118t127 298q18 87 12 163.5t-29.5 133.5t-74 90t-121.5 33q-136 0 -231 -118.5t-129 -301.5z" />
    <glyph glyph-name="P" unicode="P" horiz-adv-x="1740" 
d="M-49 -6l299 1902h825q199 0 349 -56t234.5 -153.5t117 -223.5t10.5 -271q-38 -231 -183 -399t-375 -256t-523 -91h-3l-69 -446zM786 993h103q95 0 168 62t84 178q9 90 -43.5 143.5t-147.5 53.5q-15 0 -47 -1.5t-49 -1.5z" />
    <glyph glyph-name="P" unicode="p" horiz-adv-x="1740" 
d="M-49 -6l299 1902h825q199 0 349 -56t234.5 -153.5t117 -223.5t10.5 -271q-38 -231 -183 -399t-375 -256t-523 -91h-3l-69 -446zM786 993h103q95 0 168 62t84 178q9 90 -43.5 143.5t-147.5 53.5q-15 0 -47 -1.5t-49 -1.5z" />
    <glyph glyph-name="Q" unicode="Q" horiz-adv-x="2076" 
d="M831 -170q-136 0 -253.5 27t-207 77.5t-160 122t-113.5 159.5t-68 191.5t-23.5 217.5t21.5 237q30 172 97 326t172 283.5t238.5 224t304.5 147.5t361 53q136 0 253.5 -27.5t207 -78t160 -122.5t114 -160.5t68.5 -192t23.5 -217.5t-21.5 -236q-40 -227 -144.5 -421
t-263.5 -332l152 -285l-582 -289l-145 309q-85 -14 -191 -14zM727 862q-17 -117 -4.5 -209.5t69 -149.5t148.5 -57q140 0 234.5 117.5t125.5 298.5q18 87 12 163.5t-29.5 133.5t-74 90t-121.5 33q-136 0 -231 -118.5t-129 -301.5z" />
    <glyph glyph-name="Q" unicode="q" horiz-adv-x="2076" 
d="M831 -170q-136 0 -253.5 27t-207 77.5t-160 122t-113.5 159.5t-68 191.5t-23.5 217.5t21.5 237q30 172 97 326t172 283.5t238.5 224t304.5 147.5t361 53q136 0 253.5 -27.5t207 -78t160 -122.5t114 -160.5t68.5 -192t23.5 -217.5t-21.5 -236q-40 -227 -144.5 -421
t-263.5 -332l152 -285l-582 -289l-145 309q-85 -14 -191 -14zM727 862q-17 -117 -4.5 -209.5t69 -149.5t148.5 -57q140 0 234.5 117.5t125.5 298.5q18 87 12 163.5t-29.5 133.5t-74 90t-121.5 33q-136 0 -231 -118.5t-129 -301.5z" />
    <glyph glyph-name="R" unicode="R" horiz-adv-x="1806" 
d="M-39 -6l295 1896l682 6v-2q51 2 147 2q101 1 190 -12.5t160 -40.5t131 -66t102 -87.5t73.5 -105.5t45.5 -120.5t18 -132t-9 -139.5q-30 -188 -133 -334.5t-266 -241.5l366 -616h-764l-270 559l-86 -559zM797 993h100q97 0 170 62t84 178q9 90 -43.5 143.5t-146.5 53.5
q-15 0 -47.5 -1.5t-49.5 -1.5z" />
    <glyph glyph-name="R" unicode="r" horiz-adv-x="1806" 
d="M-39 -6l295 1896l682 6v-2q51 2 147 2q101 1 190 -12.5t160 -40.5t131 -66t102 -87.5t73.5 -105.5t45.5 -120.5t18 -132t-9 -139.5q-30 -188 -133 -334.5t-266 -241.5l366 -616h-764l-270 559l-86 -559zM797 993h100q97 0 170 62t84 178q9 90 -43.5 143.5t-146.5 53.5
q-15 0 -47.5 -1.5t-49.5 -1.5z" />
    <glyph glyph-name="S" unicode="S" horiz-adv-x="1896" 
d="M803 -170q-173 0 -321 43.5t-251.5 119t-173.5 175t-97.5 214.5t-12.5 234h659q0 -42 11 -80.5t34.5 -75.5t68 -64.5t105.5 -39.5q131 -25 222 37q69 47 70 112q2 74 -89 119q-55 27 -137 38q-145 20 -262 52t-218.5 86t-164.5 126.5t-89 176t-3 230.5q21 113 84 207
t153 159t203.5 110t234.5 66t246 21q254 0 450.5 -88t306 -257t101.5 -394l-628 12q0 96 -81.5 160t-234.5 53q-46 -3 -87.5 -20.5t-68 -42.5t-34 -54.5t6 -57t60.5 -50.5t123 -33q241 -32 408 -94.5t256 -150.5t121 -190.5t16 -229.5q-26 -188 -158.5 -331t-347.5 -220.5
t-481 -77.5z" />
    <glyph glyph-name="S" unicode="s" horiz-adv-x="1896" 
d="M803 -170q-173 0 -321 43.5t-251.5 119t-173.5 175t-97.5 214.5t-12.5 234h659q0 -42 11 -80.5t34.5 -75.5t68 -64.5t105.5 -39.5q131 -25 222 37q69 47 70 112q2 74 -89 119q-55 27 -137 38q-145 20 -262 52t-218.5 86t-164.5 126.5t-89 176t-3 230.5q21 113 84 207
t153 159t203.5 110t234.5 66t246 21q254 0 450.5 -88t306 -257t101.5 -394l-628 12q0 96 -81.5 160t-234.5 53q-46 -3 -87.5 -20.5t-68 -42.5t-34 -54.5t6 -57t60.5 -50.5t123 -33q241 -32 408 -94.5t256 -150.5t121 -190.5t16 -229.5q-26 -188 -158.5 -331t-347.5 -220.5
t-481 -77.5z" />
    <glyph glyph-name="T" unicode="T" horiz-adv-x="1626" 
d="M348 0l232 1399h-543l84 497h1743l-84 -497h-518l-234 -1399h-680z" />
    <glyph glyph-name="T" unicode="t" horiz-adv-x="1626" 
d="M348 0l232 1399h-543l84 497h1743l-84 -497h-518l-234 -1399h-680z" />
    <glyph glyph-name="U" unicode="U" horiz-adv-x="2080" 
d="M852 -170q-214 0 -376.5 59t-270 177t-146 306.5t-0.5 436.5l170 1087h695q-125 -756 -170 -1034q-32 -196 28.5 -286.5t188.5 -90.5q126 0 213.5 101.5t120.5 275.5l170 1034h694l-170 -1087q-39 -215 -132 -393t-235.5 -309.5t-342 -204t-437.5 -72.5z" />
    <glyph glyph-name="U" unicode="u" horiz-adv-x="2080" 
d="M852 -170q-214 0 -376.5 59t-270 177t-146 306.5t-0.5 436.5l170 1087h695q-125 -756 -170 -1034q-32 -196 28.5 -286.5t188.5 -90.5q126 0 213.5 101.5t120.5 275.5l170 1034h694l-170 -1087q-39 -215 -132 -393t-235.5 -309.5t-342 -204t-437.5 -72.5z" />
    <glyph glyph-name="V" unicode="V" horiz-adv-x="1845" 
d="M176 0l-45 1896h655v-1579l541 1579h709l-725 -1896h-1135z" />
    <glyph glyph-name="V" unicode="v" horiz-adv-x="1845" 
d="M176 0l-45 1896h655v-1579l541 1579h709l-725 -1896h-1135z" />
    <glyph glyph-name="W" unicode="W" horiz-adv-x="2598" 
d="M1307 0l18 1018l-352 -1018h-887l33 1896h655l-92 -1316l448 1316h656l-12 -1316l368 1316h709l-643 -1896h-901z" />
    <glyph glyph-name="W" unicode="w" horiz-adv-x="2598" 
d="M1307 0l18 1018l-352 -1018h-887l33 1896h655l-92 -1316l448 1316h656l-12 -1316l368 1316h709l-643 -1896h-901z" />
    <glyph glyph-name="X" unicode="X" horiz-adv-x="2015" 
d="M1135 0l-160 739l-359 -739h-800l551 971l-273 925h791l157 -690l361 690h825l-590 -890l312 -1006h-815z" />
    <glyph glyph-name="X" unicode="x" horiz-adv-x="2015" 
d="M1135 0l-160 739l-359 -739h-800l551 971l-273 925h791l157 -690l361 690h825l-590 -890l312 -1006h-815z" />
    <glyph glyph-name="Y" unicode="Y" horiz-adv-x="1486" 
d="M258 0l100 606l-401 1290h655l164 -743l377 743h709l-820 -1267l-102 -629h-682z" />
    <glyph glyph-name="Y" unicode="y" horiz-adv-x="1486" 
d="M258 0l100 606l-401 1290h655l164 -743l377 743h709l-820 -1267l-102 -629h-682z" />
    <glyph glyph-name="Z" unicode="Z" horiz-adv-x="1830" 
d="M-250 0l1145 1399h-807l88 497h1882l-1091 -1398h809l-88 -498h-1938z" />
    <glyph glyph-name="Z" unicode="z" horiz-adv-x="1830" 
d="M-250 0l1145 1399h-807l88 497h1882l-1091 -1398h809l-88 -498h-1938z" />
    <glyph glyph-name="bracketleft" unicode="[" horiz-adv-x="1183" 
d="M0 -455l414 2497l989 6l-70 -442l-442 -4l-268 -1618l426 4l-70 -443h-979z" />
    <glyph glyph-name="backslash" unicode="\" horiz-adv-x="1331" 
d="M731 -209l-711 2040h549l713 -2040h-551z" />
    <glyph glyph-name="bracketright" unicode="]" horiz-adv-x="1175" 
d="M-225 -455l67 443l445 4l268 1618l-428 -4l70 442h979l-412 -2497z" />
    <glyph glyph-name="asciicircum" unicode="^" horiz-adv-x="1540" 
d="M98 1180l578 786h514l379 -786h-596l-133 321l-228 -321h-514z" />
    <glyph glyph-name="underscore" unicode="_" horiz-adv-x="1169" 
d="M-174 -315l63 452h1160l-62 -452h-1161z" />
    <glyph glyph-name="grave" unicode="`" horiz-adv-x="976" 
d="M881 1462l-881 252l217 428l760 -450z" />
    <glyph glyph-name="braceleft" unicode="{" horiz-adv-x="1071" 
d="M580 -455q-103 26 -187.5 65t-143.5 86t-101.5 102.5t-60.5 113.5t-21.5 120t16.5 122q21 77 61 146.5t77 112t70 91.5t42 90q4 25 -7.5 52t-31.5 47.5t-41 37.5t-36 26l-15 9l41 227q8 0 50.5 13.5t93.5 44.5t56 67q9 41 -6.5 101.5t-37 117.5t-34 136t2.5 159
q18 92 64 164.5t123.5 124t186.5 68.5t254 0l-77 -422q-2 1 -6.5 2t-17 1.5t-24 -0.5t-27 -6.5t-27.5 -15.5t-23 -28.5t-17 -44.5q-8 -43 3 -95.5t27.5 -97.5t24.5 -112t-6 -138q-13 -74 -88.5 -132.5t-169.5 -76.5q75 -43 123.5 -141t34.5 -178q-11 -58 -33.5 -101
t-46.5 -68.5t-48 -48t-42.5 -51t-24.5 -65.5q-8 -35 4 -62t34.5 -40.5t46 -22t40.5 -10.5l17 -2z" />
    <glyph glyph-name="bar" unicode="|" horiz-adv-x="1091" 
d="M127 -610l436 2652h344l-436 -2652h-344z" />
    <glyph glyph-name="braceright" unicode="}" horiz-adv-x="1071" 
d="M143 -23q5 -1 13 -2.5t29 -0.5t38.5 8.5t35.5 30t26 57.5q8 43 -3 95.5t-27.5 97t-24.5 111.5t6 138q15 73 90 132t170 77q-76 41 -124.5 139.5t-33.5 177.5q11 58 32.5 102t45.5 69.5t47.5 47.5t42 50.5t24.5 64.5q8 35 -4 62t-34 41t-45.5 23t-40.5 11l-17 2l92 488
q103 -27 187.5 -66t143.5 -86t101.5 -102t61 -113.5t21.5 -120.5t-17 -122q-17 -62 -46.5 -119t-60 -98t-60 -77.5t-52 -73.5t-29.5 -71q-4 -26 7.5 -53.5t31.5 -48t41 -37.5t36 -26l15 -9l-43 -225q-8 0 -50.5 -14t-93.5 -45t-57 -66q-8 -41 7.5 -101.5t37.5 -117t34 -136
t-3 -159.5q-17 -92 -63.5 -164.5t-121.5 -123.5t-188.5 -70t-254.5 0z" />
    <glyph glyph-name="asciitilde" unicode="~" horiz-adv-x="1402" 
d="M-33 383q-2 180 39 322.5t111 229t156.5 131t181.5 44.5q73 0 135.5 -24.5t96 -53.5t65.5 -53.5t51 -24.5q26 0 47.5 8t35 21t24 29t15.5 32t8.5 29t4.5 21v8h434q3 -174 -42 -315t-120.5 -227t-166 -131.5t-185.5 -45.5q-66 0 -115.5 16.5t-77 40.5t-48 48t-40 40.5
t-40.5 16.5q-26 0 -49.5 -16.5t-38.5 -40.5t-26 -48t-15 -40l-5 -17h-436z" />
    <glyph glyph-name="uni00A0" unicode="&#xa0;" horiz-adv-x="960" 
 />
    <glyph glyph-name="exclamdown" unicode="&#xa1;" horiz-adv-x="808" 
d="M641 387l-84 -1200h-682l404 1200h362zM141 889q0 141 109.5 240.5t267.5 99.5q154 0 265.5 -100t111.5 -240t-111 -239t-266 -99q-158 0 -267.5 98.5t-109.5 239.5z" />
    <glyph glyph-name="cent" unicode="&#xa2;" horiz-adv-x="1683" 
d="M487 -328l62 369q-190 34 -317 152t-173.5 293t-9.5 382q37 208 137.5 379.5t267 291t375.5 155.5l60 348h317l-59 -348q156 -33 268 -133.5t165 -250t42 -327.5h-485q-3 111 -82 174l-97 -575q98 68 140 172h481q-76 -268 -269.5 -462.5t-443.5 -248.5l-63 -371h-316z
M584 868q-16 -86 -0.5 -156.5t59.5 -117.5l92 543q-57 -46 -97.5 -117t-53.5 -152z" />
    <glyph glyph-name="sterling" unicode="&#xa3;" horiz-adv-x="1720" 
d="M23 -4l112 670h-135l53 338h142q35 157 84 279t125 228.5t176.5 176t241 108.5t315.5 39q198 0 327.5 -49.5t189.5 -144t64.5 -233t-47.5 -316.5h-528q33 82 10 145t-94 63q-45 0 -78 -13t-52.5 -31t-34 -52t-21.5 -61t-15 -74l-10 -65h401l-49 -338h-407l-23 -136h840
l-86 -534h-1501z" />
    <glyph glyph-name="currency" unicode="&#xa4;" horiz-adv-x="1726" 
d="M809 424q-181 0 -315 78l-265 -174l-206 327l270 146q-8 54 2 125q15 101 72 192l-181 160l342 250l144 -150q138 60 295 60q199 0 342 -99l274 172l197 -309l-293 -166q3 -64 -4 -110q-19 -115 -82 -205l233 -184l-329 -271l-205 215q-136 -57 -291 -57zM760 926
q-11 -60 16.5 -99t89.5 -39q60 0 100 39.5t46 98.5q11 63 -15 104t-88 41q-61 0 -99.5 -40.5t-49.5 -104.5z" />
    <glyph glyph-name="yen" unicode="&#xa5;" horiz-adv-x="1792" 
d="M389 -4l45 266h-336l62 414h297l-359 1159h635l158 -717l366 717h689l-750 -1159h334l-62 -414h-372l-43 -266h-664z" />
    <glyph glyph-name="brokenbar" unicode="&#xa6;" horiz-adv-x="1091" 
d="M373 889l190 1153h344l-190 -1153h-344zM127 -610l213 1294h344l-213 -1294h-344z" />
    <glyph glyph-name="logo" unicode="&#xa7;" 
 />
    <glyph glyph-name="dieresis" unicode="&#xa8;" horiz-adv-x="1445" 
d="M305 1507q-150 0 -235 89.5t-64 218.5q21 131 131.5 220t259.5 89q151 0 236 -89.5t65 -219.5q-21 -130 -132 -219t-261 -89zM750 1815q19 131 130 220t261 89t234 -89t63 -220q-19 -130 -129 -219t-260 -89t-234 89t-65 219z" />
    <glyph glyph-name="copyright" unicode="&#xa9;" horiz-adv-x="2664" 
d="M1055 -553q-172 0 -320 34.5t-261 98t-202.5 153.5t-144.5 201t-87 241.5t-30 274t27 298.5q38 217 123.5 412t218 358.5t301 282t383.5 185t455 66.5q151 0 284 -26.5t239 -76t192.5 -120t148.5 -159t103.5 -193t60 -221.5t16 -245t-26.5 -263q-32 -180 -97.5 -346
t-160.5 -311t-223.5 -263.5t-279.5 -203t-335 -131t-384 -46.5zM410 748q-31 -144 -35.5 -275t18 -246.5t76.5 -209.5t134.5 -161t196.5 -104t259 -37q172 0 327.5 52.5t279 146.5t223.5 223.5t168 283.5t106 327q31 144 35.5 275.5t-18.5 247t-76.5 209.5t-134.5 161.5
t-197 104t-259 36.5q-172 0 -327.5 -52.5t-278.5 -146.5t-223 -223.5t-168 -284t-106 -327.5zM602 766q28 155 98 288t174.5 233.5t251 158t316.5 57.5q173 0 301 -84.5t189 -229.5t50 -325h-426q0 88 -55.5 144.5t-136.5 56.5q-103 0 -188 -87.5t-105 -211.5
q-22 -125 31 -211t155 -86q81 0 157 56t106 141h426q-39 -134 -114.5 -251.5t-174.5 -203t-223 -135t-254 -49.5q-127 0 -233 37.5t-178 104.5t-119 159.5t-57 203t9 234.5z" />
    <glyph glyph-name="ordfeminine" unicode="&#xaa;" horiz-adv-x="1419" 
d="M446 879q-113 0 -194.5 75.5t-112.5 205t-2 282.5q27 153 106.5 282.5t189 205t222.5 75.5q107 0 186.5 -70t112.5 -188l25 149h436l-149 -909h-435l31 184q-79 -133 -190.5 -212.5t-225.5 -79.5zM131 586l39 260h1075l-39 -260h-1075zM535 1442q-20 -105 20 -178.5
t117 -73.5t145 73.5t88 178.5l2 12q14 99 -26.5 169.5t-114.5 70.5q-75 0 -143 -74.5t-88 -177.5z" />
    <glyph glyph-name="guillemotleft" unicode="&#xab;" horiz-adv-x="2199" 
d="M1409 37l-459 581l33 191l684 588h762l-823 -686l534 -674h-731zM0 618l33 191l684 588h762l-824 -686l535 -674h-731z" />
    <glyph glyph-name="logicalnot" unicode="&#xac;" horiz-adv-x="1189" 
d="M23 569l110 557h1090l-107 -557h-1093zM319 92l105 350h428l-309 -376z" />
    <glyph glyph-name="uni00AD" unicode="&#xad;" horiz-adv-x="1005" 
d="M20 569l89 557h864l-84 -557h-869z" />
    <glyph glyph-name="registered" unicode="&#xae;" horiz-adv-x="2658" 
d="M1049 -553q-172 0 -319.5 34.5t-260.5 98t-202.5 153.5t-144.5 201t-87 241.5t-31 274t25 298.5q39 217 124.5 412t218 358.5t301 282t383.5 185t455 66.5q151 0 284 -26.5t239 -76t193 -120t149 -159t103.5 -193t60 -221.5t16 -245t-26.5 -263q-38 -217 -123 -411.5
t-217.5 -357t-300.5 -281.5t-383.5 -185t-455.5 -66zM403 748q-31 -144 -35.5 -275t18.5 -246.5t77 -209.5t134.5 -161t197 -104t260.5 -37q239 0 438 97.5t352 275.5h-456l-205 426l-66 -428l-522 -4l162 1364q-119 -127 -213.5 -304.5t-141.5 -393.5zM829 1524l623 6
q151 1 266 -41.5t179.5 -117.5t89.5 -171.5t6 -206.5q-46 -287 -301 -440l221 -373q172 246 244 568q31 144 35.5 275.5t-18.5 247t-76.5 209.5t-134.5 161.5t-197 104t-259 36.5q-388 0 -678 -258zM1235 842h76q74 0 128.5 47t63.5 133q7 71 -33.5 111.5t-113.5 40.5h-72z
" />
    <glyph glyph-name="macron" unicode="&#xaf;" horiz-adv-x="1497" 
d="M186 1489l82 436h1250l-78 -436h-1254z" />
    <glyph glyph-name="degree" unicode="&#xb0;" horiz-adv-x="1228" 
d="M606 1223q-132 0 -240.5 43t-177.5 116t-99 173t-13 212q22 150 118 275.5t248 200.5t328 75q175 0 306 -75t190 -200.5t37 -275.5q-22 -149 -119 -273.5t-250 -197.5t-328 -73zM557 1767q-11 -66 17.5 -107.5t93.5 -41.5q60 0 101.5 42.5t47.5 106.5q11 68 -15.5 112
t-90.5 44q-63 0 -104 -44t-50 -112z" />
    <glyph glyph-name="plusminus" unicode="&#xb1;" horiz-adv-x="1169" 
d="M-174 -315l63 452h1160l-62 -452h-1161zM10 653l68 441h297l47 299l508 6l-47 -305h297l-72 -441h-295l-47 -299h-506l47 299h-297z" />
    <glyph glyph-name="uni00B2" unicode="&#xb2;" horiz-adv-x="1384" 
d="M55 799q105 33 220 81t234 110t220.5 138.5t157.5 151.5q24 33 24 70q0 46 -24 72t-68 26q-73 0 -116 -60.5t-37 -136.5h-533q0 90 31 178.5t95.5 169.5t154 143t216.5 99t273 37q269 0 407 -106.5t138 -278.5q0 -113 -43 -209.5t-128.5 -178t-195.5 -149t-262 -137.5
h584l-68 -409h-1345z" />
    <glyph glyph-name="uni00B3" unicode="&#xb3;" horiz-adv-x="1462" 
d="M649 410q-295 0 -447.5 113.5t-152.5 297.5q0 80 33 174h522q-4 -12 -4 -32q0 -39 35.5 -61.5t107.5 -22.5q92 0 138.5 32.5t46.5 79.5q0 78 -164 78h-260l45 262h235q77 0 116.5 24.5t39.5 57.5q0 64 -111 64q-68 0 -97 -23t-34 -65h-487q0 102 43.5 185.5t115.5 139
t167 93.5t194 54.5t201 16.5q297 0 439 -84.5t142 -232.5q0 -104 -64.5 -196.5t-193.5 -152.5q213 -93 213 -282q0 -68 -26 -137t-88.5 -139t-153.5 -123.5t-234 -87t-317 -33.5z" />
    <glyph glyph-name="acute" unicode="&#xb4;" horiz-adv-x="999" 
d="M82 1468l-82 236l825 399l174 -454z" />
    <glyph glyph-name="uni00B5" unicode="&#xb5;" horiz-adv-x="2160" 
d="M1239 0l51 305q-120 -174 -284.5 -297.5t-329.5 -163.5l-68 -411h-680l172 1044q5 44 19 117l137 836h682l-137 -836q-25 -140 9.5 -208.5t137.5 -68.5q107 0 225.5 93t169.5 225l132 795h682l-236 -1430h-682z" />
    <glyph glyph-name="paragraph" unicode="&#xb6;" horiz-adv-x="1632" 
d="M715 -610l350 2128h-244l-350 -2128h-344l350 2128h-284l88 557h1355l-84 -557h-143l-350 -2128h-344z" />
    <glyph glyph-name="periodcentered" unicode="&#xb7;" horiz-adv-x="966" 
d="M465 340q-178 0 -302 112.5t-124 270.5q0 159 124 270t302 111q177 0 301.5 -111.5t124.5 -269.5q0 -157 -125 -270t-301 -113z" />
    <glyph glyph-name="cedilla" unicode="&#xb8;" horiz-adv-x="1261" 
d="M98 -487q559 -76 614 0q13 17 -3 41t-54.5 39.5t-82 20t-84.5 6t-68 -0.5l-27 -2l240 322l366 18l-102 -256q12 -1 31 -3t71.5 -14t95.5 -30t86 -53.5t60 -81.5q26 -77 10 -141.5t-74 -116t-144.5 -90.5t-202.5 -63t-248 -34.5t-281 -5t-301 26.5z" />
    <glyph glyph-name="uni00B9" unicode="&#xb9;" horiz-adv-x="821" 
d="M61 410l211 1257l246 211h363l-248 -1468h-572z" />
    <glyph glyph-name="ordmasculine" unicode="&#xba;" horiz-adv-x="1327" 
d="M662 950q-165 0 -287.5 69t-177 186t-33.5 259q21 141 111.5 257.5t233 185.5t306.5 69q165 0 287.5 -69t177.5 -185.5t35 -257.5q-33 -217 -218 -365.5t-435 -148.5zM66 586l38 260h1076l-39 -260h-1075zM616 1464q-11 -61 15.5 -102t85.5 -41t96.5 40.5t48.5 102.5
q9 63 -17 104.5t-85 41.5t-97.5 -41.5t-46.5 -104.5z" />
    <glyph glyph-name="guillemotright" unicode="&#xbb;" horiz-adv-x="2277" 
d="M754 37l823 684l-535 676h732l458 -584l-32 -190l-687 -586h-759zM-197 37l824 684l-535 676h731l459 -584l-33 -190l-686 -586h-760z" />
    <glyph glyph-name="onequarter" unicode="&#xbc;" horiz-adv-x="2152" 
d="M-98 0l1634 1835h518l-1634 -1835h-518zM180 924l164 956l184 162h279l-189 -1118h-438zM797 49l688 940h481l-102 -612h118l-55 -328h-119l-28 -180h-387l28 180h-624zM1376 360h127l74 299z" />
    <glyph glyph-name="onehalf" unicode="&#xbd;" horiz-adv-x="2293" 
d="M-131 0l1634 1835h518l-1634 -1835h-518zM147 924l160 956l189 162h278l-190 -1118h-437zM1055 -131l49 299q81 24 185.5 68t212.5 102.5t181.5 128t73.5 129.5q0 29 -20.5 47.5t-48.5 18.5q-50 0 -87.5 -40t-37.5 -94q0 -5 2 -10l2 -6h-404q0 88 39.5 172t111.5 152.5
t185.5 110.5t249.5 42q206 0 310 -81t104 -214q0 -162 -119.5 -285t-355.5 -229h442l-53 -311h-1022z" />
    <glyph glyph-name="threequarters" unicode="&#xbe;" horiz-adv-x="2435" 
d="M242 0l1636 1835h518l-1636 -1835h-518zM102 1229q0 64 25 141h397q-4 -10 -4 -22q0 -70 113 -70q69 0 105 26t36 62q0 55 -129 55h-196l32 201h181q57 0 87.5 20.5t30.5 45.5q0 26 -19 35.5t-63 9.5q-56 0 -76.5 -16.5t-25.5 -49.5h-371q-2 8 -2 25q0 35 23 98
q22 48 59 89.5t98 80t156.5 60.5t216.5 22q219 0 331 -65t112 -179q0 -79 -49.5 -150.5t-147.5 -113.5q162 -73 162 -217q0 -76 -38 -145t-112 -125t-196 -89.5t-277 -33.5q-226 0 -342.5 85t-116.5 220zM1137 49l688 940h481l-100 -612h116l-55 -328h-117l-30 -180h-387
l30 180h-626zM1716 360h129l72 299z" />
    <glyph glyph-name="questiondown" unicode="&#xbf;" horiz-adv-x="1779" 
d="M1186 -16q-42 -1 -136.5 -1.5t-133.5 -2t-93.5 -7.5t-91.5 -18q-62 -20 -104 -51.5t-60 -66.5t-18 -71.5t17.5 -67t52 -52.5t79.5 -29q144 -21 247.5 42.5t107.5 193.5h628q-59 -344 -312.5 -521.5t-698.5 -177.5q-157 0 -291 29.5t-238.5 87t-166.5 151t-68 213.5
q-7 131 51 243.5t168 193.5t260.5 134t329.5 73l90 149q34 -2 115 -1t165 3l84 2zM653 889q0 141 110.5 240.5t266.5 99.5q157 0 268 -99.5t111 -240.5t-111 -239.5t-268 -98.5q-156 0 -266.5 98.5t-110.5 239.5zM805 428l2 4l-8 -2z" />
    <glyph glyph-name="Agrave" unicode="&#xc0;" horiz-adv-x="1900" 
d="M-131 0l721 1896h1134l45 -1896h-682v354h-415l-121 -354h-682zM721 2181l217 428l760 -450l-96 -230zM823 799h264v780z" />
    <glyph glyph-name="Agrave" unicode="&#xe0;" horiz-adv-x="1900" 
d="M-131 0l721 1896h1134l45 -1896h-682v354h-415l-121 -354h-682zM721 2181l217 428l760 -450l-96 -230zM823 799h264v780z" />
    <glyph glyph-name="Aacute" unicode="&#xc1;" horiz-adv-x="1900" 
d="M-131 0l721 1896h1134l45 -1896h-682v354h-415l-121 -354h-682zM705 2171l825 399l174 -454l-918 -181zM823 799h264v780z" />
    <glyph glyph-name="Aacute" unicode="&#xe1;" horiz-adv-x="1900" 
d="M-131 0l721 1896h1134l45 -1896h-682v354h-415l-121 -354h-682zM705 2171l825 399l174 -454l-918 -181zM823 799h264v780z" />
    <glyph glyph-name="Acircumflex" unicode="&#xc2;" horiz-adv-x="1900" 
d="M-131 0l721 1896h1134l45 -1896h-682v354h-415l-121 -354h-682zM373 1974l643 492h514l444 -492h-596l-170 180l-190 -180h-645zM823 799h264v780z" />
    <glyph glyph-name="Acircumflex" unicode="&#xe2;" horiz-adv-x="1900" 
d="M-131 0l721 1896h1134l45 -1896h-682v354h-415l-121 -354h-682zM373 1974l643 492h514l444 -492h-596l-170 180l-190 -180h-645zM823 799h264v780z" />
    <glyph glyph-name="Atilde" unicode="&#xc3;" horiz-adv-x="1900" 
d="M-131 0l721 1896h1134l45 -1896h-682v354h-415l-121 -354h-682zM492 1995q68 264 189 413.5t298 149.5q59 0 111 -16.5t89 -39.5t70.5 -46t70 -39.5t73.5 -16.5q26 0 47.5 8t35 21t24 29t15.5 32t8.5 29t4.5 21v8h434q-118 -553 -514 -553q-65 0 -117.5 16.5t-84.5 39.5
t-60 46.5t-59 40t-66 16.5q-42 0 -75 -40t-46 -80l-12 -39h-436zM823 799h264v780z" />
    <glyph glyph-name="Atilde" unicode="&#xe3;" horiz-adv-x="1900" 
d="M-131 0l721 1896h1134l45 -1896h-682v354h-415l-121 -354h-682zM492 1995q68 264 189 413.5t298 149.5q59 0 111 -16.5t89 -39.5t70.5 -46t70 -39.5t73.5 -16.5q26 0 47.5 8t35 21t24 29t15.5 32t8.5 29t4.5 21v8h434q-118 -553 -514 -553q-65 0 -117.5 16.5t-84.5 39.5
t-60 46.5t-59 40t-66 16.5q-42 0 -75 -40t-46 -80l-12 -39h-436zM823 799h264v780z" />
    <glyph glyph-name="Adieresis" unicode="&#xc4;" horiz-adv-x="1900" 
d="M-131 0l721 1896h1134l45 -1896h-682v354h-415l-121 -354h-682zM510 2281q21 131 131.5 220.5t259.5 89.5q151 0 236 -90t65 -220q-21 -129 -132 -218t-261 -89t-235 89t-64 218zM823 799h264v780zM1253 2281q19 131 130.5 220.5t261.5 89.5t234 -89.5t63 -220.5
q-19 -129 -129.5 -218t-260.5 -89t-234 89t-65 218z" />
    <glyph glyph-name="Adieresis" unicode="&#xe4;" horiz-adv-x="1900" 
d="M-131 0l721 1896h1134l45 -1896h-682v354h-415l-121 -354h-682zM510 2281q21 131 131.5 220.5t259.5 89.5q151 0 236 -90t65 -220q-21 -129 -132 -218t-261 -89t-235 89t-64 218zM823 799h264v780zM1253 2281q19 131 130.5 220.5t261.5 89.5t234 -89.5t63 -220.5
q-19 -129 -129.5 -218t-260.5 -89t-234 89t-65 218z" />
    <glyph glyph-name="Aring" unicode="&#xc5;" horiz-adv-x="1900" 
d="M-131 0l721 1896h446q-139 37 -210.5 142.5t-49.5 242.5q25 170 170.5 289t341.5 119q195 0 306.5 -119t86.5 -289q-20 -137 -124 -242.5t-254 -142.5h421l45 -1896h-682v354h-415l-121 -354h-682zM823 799h264v780zM1130 2281q-8 -48 13 -79t69 -31q45 0 75.5 31.5
t35.5 78.5q8 50 -11.5 82.5t-66.5 32.5t-77 -32.5t-38 -82.5z" />
    <glyph glyph-name="Aring" unicode="&#xe5;" horiz-adv-x="1900" 
d="M-131 0l721 1896h446q-139 37 -210.5 142.5t-49.5 242.5q25 170 170.5 289t341.5 119q195 0 306.5 -119t86.5 -289q-20 -137 -124 -242.5t-254 -142.5h421l45 -1896h-682v354h-415l-121 -354h-682zM823 799h264v780zM1130 2281q-8 -48 13 -79t69 -31q45 0 75.5 31.5
t35.5 78.5q8 50 -11.5 82.5t-66.5 32.5t-77 -32.5t-38 -82.5z" />
    <glyph glyph-name="AE" unicode="&#xc6;" horiz-adv-x="2605" 
d="M-164 0l1118 1896h1700l-86 -483h-583l-37 -223h487l-88 -485h-479l-35 -220h674l-86 -485h-1350l57 354h-411l-199 -354h-682zM967 799h235l96 592z" />
    <glyph glyph-name="AE" unicode="&#xe6;" horiz-adv-x="2605" 
d="M-164 0l1118 1896h1700l-86 -483h-583l-37 -223h487l-88 -485h-479l-35 -220h674l-86 -485h-1350l57 354h-411l-199 -354h-682zM967 799h235l96 592z" />
    <glyph glyph-name="Ccedilla" unicode="&#xc7;" horiz-adv-x="1988" 
d="M201 -410q563 -76 614 1q11 17 -4 40q-25 38 -104 54t-145 13l-66 -3l114 155q-143 27 -256.5 92.5t-186 159t-116 214t-48 257.5t19.5 289q31 172 98.5 326t172 283.5t238 224t304 147.5t360.5 53q147 0 273 -44t219.5 -125t157.5 -191t92 -246t18 -286h-645
q-3 127 -59 202.5t-165 75.5q-137 0 -233 -119t-127 -301q-19 -117 -7 -209.5t69.5 -149.5t150.5 -57q110 0 193 74.5t129 200.5h645q-96 -329 -334.5 -567.5t-544.5 -303.5l-29 -71q12 -1 31 -3t71.5 -14t95.5 -30t86 -53.5t60 -81.5q26 -77 10 -141.5t-74 -116
t-144.5 -90.5t-202.5 -63t-248 -34.5t-281 -5t-301 26.5z" />
    <glyph glyph-name="Ccedilla" unicode="&#xe7;" horiz-adv-x="1988" 
d="M201 -410q563 -76 614 1q11 17 -4 40q-25 38 -104 54t-145 13l-66 -3l114 155q-143 27 -256.5 92.5t-186 159t-116 214t-48 257.5t19.5 289q31 172 98.5 326t172 283.5t238 224t304 147.5t360.5 53q147 0 273 -44t219.5 -125t157.5 -191t92 -246t18 -286h-645
q-3 127 -59 202.5t-165 75.5q-137 0 -233 -119t-127 -301q-19 -117 -7 -209.5t69.5 -149.5t150.5 -57q110 0 193 74.5t129 200.5h645q-96 -329 -334.5 -567.5t-544.5 -303.5l-29 -71q12 -1 31 -3t71.5 -14t95.5 -30t86 -53.5t60 -81.5q26 -77 10 -141.5t-74 -116
t-144.5 -90.5t-202.5 -63t-248 -34.5t-281 -5t-301 26.5z" />
    <glyph glyph-name="Egrave" unicode="&#xc8;" horiz-adv-x="1675" 
d="M-55 0l313 1896h1468l-88 -483h-778l-37 -223h680l-88 -485h-672l-36 -220h870l-86 -485h-1546zM610 2181l217 428l760 -450l-96 -230z" />
    <glyph glyph-name="Egrave" unicode="&#xe8;" horiz-adv-x="1675" 
d="M-55 0l313 1896h1468l-88 -483h-778l-37 -223h680l-88 -485h-672l-36 -220h870l-86 -485h-1546zM610 2181l217 428l760 -450l-96 -230z" />
    <glyph glyph-name="Eacute" unicode="&#xc9;" horiz-adv-x="1675" 
d="M-55 0l313 1896h1468l-88 -483h-778l-37 -223h680l-88 -485h-672l-36 -220h870l-86 -485h-1546zM594 2171l825 399l174 -454l-917 -181z" />
    <glyph glyph-name="Eacute" unicode="&#xe9;" horiz-adv-x="1675" 
d="M-55 0l313 1896h1468l-88 -483h-778l-37 -223h680l-88 -485h-672l-36 -220h870l-86 -485h-1546zM594 2171l825 399l174 -454l-917 -181z" />
    <glyph glyph-name="Ecircumflex" unicode="&#xca;" horiz-adv-x="1675" 
d="M-55 0l313 1896h1468l-88 -483h-778l-37 -223h680l-88 -485h-672l-36 -220h870l-86 -485h-1546zM262 1974l643 492h514l445 -492h-596l-170 180l-191 -180h-645z" />
    <glyph glyph-name="Ecircumflex" unicode="&#xea;" horiz-adv-x="1675" 
d="M-55 0l313 1896h1468l-88 -483h-778l-37 -223h680l-88 -485h-672l-36 -220h870l-86 -485h-1546zM262 1974l643 492h514l445 -492h-596l-170 180l-191 -180h-645z" />
    <glyph glyph-name="Edieresis" unicode="&#xcb;" horiz-adv-x="1675" 
d="M-55 0l313 1896h1468l-88 -483h-778l-37 -223h680l-88 -485h-672l-36 -220h870l-86 -485h-1546zM399 2281q21 131 132 220.5t260 89.5q151 0 236 -90t65 -220q-21 -129 -132.5 -218t-261.5 -89t-235 89t-64 218zM1143 2281q19 131 130 220.5t261 89.5t234 -89.5
t63 -220.5q-19 -129 -129 -218t-260 -89t-234 89t-65 218z" />
    <glyph glyph-name="Edieresis" unicode="&#xeb;" horiz-adv-x="1675" 
d="M-55 0l313 1896h1468l-88 -483h-778l-37 -223h680l-88 -485h-672l-36 -220h870l-86 -485h-1546zM399 2281q21 131 132 220.5t260 89.5q151 0 236 -90t65 -220q-21 -129 -132.5 -218t-261.5 -89t-235 89t-64 218zM1143 2281q19 131 130 220.5t261 89.5t234 -89.5
t63 -220.5q-19 -129 -129 -218t-260 -89t-234 89t-65 218z" />
    <glyph glyph-name="Igrave" unicode="&#xcc;" horiz-adv-x="950" 
d="M-6 0l313 1896h682l-313 -1896h-682zM246 2181l217 428l760 -450l-97 -230z" />
    <glyph glyph-name="Igrave" unicode="&#xec;" horiz-adv-x="950" 
d="M-6 0l313 1896h682l-313 -1896h-682zM246 2181l217 428l760 -450l-97 -230z" />
    <glyph glyph-name="Iacute" unicode="&#xcd;" horiz-adv-x="950" 
d="M-6 0l313 1896h682l-313 -1896h-682zM229 2171l826 399l174 -454l-918 -181z" />
    <glyph glyph-name="Iacute" unicode="&#xed;" horiz-adv-x="950" 
d="M-6 0l313 1896h682l-313 -1896h-682zM229 2171l826 399l174 -454l-918 -181z" />
    <glyph glyph-name="Icircumflex" unicode="&#xce;" horiz-adv-x="950" 
d="M-6 0l313 1896h682l-313 -1896h-682zM-102 1974l643 492h514l444 -492h-596l-170 180l-190 -180h-645z" />
    <glyph glyph-name="Icircumflex" unicode="&#xee;" horiz-adv-x="950" 
d="M-6 0l313 1896h682l-313 -1896h-682zM-102 1974l643 492h514l444 -492h-596l-170 180l-190 -180h-645z" />
    <glyph glyph-name="Idieresis" unicode="&#xcf;" horiz-adv-x="950" 
d="M-6 0l313 1896h682l-313 -1896h-682zM35 2281q21 131 131.5 220.5t259.5 89.5q151 0 236 -90t65 -220q-21 -129 -132 -218t-261 -89t-235 89t-64 218zM778 2281q19 131 130 220.5t261 89.5t234 -89.5t63 -220.5q-19 -129 -129 -218t-260 -89t-234 89t-65 218z" />
    <glyph glyph-name="Idieresis" unicode="&#xef;" horiz-adv-x="950" 
d="M-6 0l313 1896h682l-313 -1896h-682zM35 2281q21 131 131.5 220.5t259.5 89.5q151 0 236 -90t65 -220q-21 -129 -132 -218t-261 -89t-235 89t-64 218zM778 2281q19 131 130 220.5t261 89.5t234 -89.5t63 -220.5q-19 -129 -129 -218t-260 -89t-234 89t-65 218z" />
    <glyph glyph-name="Eth" unicode="&#xd0;" horiz-adv-x="1861" 
d="M-33 0l123 743h-129l66 414h131l121 739h682h147q111 0 210 -27t175 -76.5t139 -118t102.5 -151t64.5 -177t26 -195t-13 -205.5q-25 -141 -83.5 -277t-151 -257t-208 -213t-264 -145.5t-308.5 -53.5h-148h-682zM739 547h68q51 0 106.5 28t108 81t92.5 141t53 196
q12 99 4 172.5t-25.5 124t-46 81.5t-58.5 45t-62 14h-94l-45 -273h192l-61 -414h-199z" />
    <glyph glyph-name="Eth" unicode="&#xf0;" horiz-adv-x="1861" 
d="M-33 0l123 743h-129l66 414h131l121 739h682h147q111 0 210 -27t175 -76.5t139 -118t102.5 -151t64.5 -177t26 -195t-13 -205.5q-25 -141 -83.5 -277t-151 -257t-208 -213t-264 -145.5t-308.5 -53.5h-148h-682zM739 547h68q51 0 106.5 28t108 81t92.5 141t53 196
q12 99 4 172.5t-25.5 124t-46 81.5t-58.5 45t-62 14h-94l-45 -273h192l-61 -414h-199z" />
    <glyph glyph-name="Ntilde" unicode="&#xd1;" horiz-adv-x="2129" 
d="M1190 0l-385 950l-156 -950h-682l312 1896h682l403 -837l137 837h682l-311 -1896h-682zM606 1995q68 264 189.5 413.5t298.5 149.5q59 0 111 -16.5t88.5 -39.5t70 -46t70 -39.5t73.5 -16.5q26 0 47.5 8t35 21t24 29t15.5 32t8.5 29t4.5 21v8h435q-118 -553 -514 -553
q-65 0 -117.5 16.5t-84.5 39.5t-60 46.5t-59 40t-66 16.5q-26 0 -49.5 -16.5t-38.5 -40t-26 -46.5t-16 -39l-4 -17h-436z" />
    <glyph glyph-name="Ntilde" unicode="&#xf1;" horiz-adv-x="2129" 
d="M1190 0l-385 950l-156 -950h-682l312 1896h682l403 -837l137 837h682l-311 -1896h-682zM606 1995q68 264 189.5 413.5t298.5 149.5q59 0 111 -16.5t88.5 -39.5t70 -46t70 -39.5t73.5 -16.5q26 0 47.5 8t35 21t24 29t15.5 32t8.5 29t4.5 21v8h435q-118 -553 -514 -553
q-65 0 -117.5 16.5t-84.5 39.5t-60 46.5t-59 40t-66 16.5q-26 0 -49.5 -16.5t-38.5 -40t-26 -46.5t-16 -39l-4 -17h-436z" />
    <glyph glyph-name="Ograve" unicode="&#xd2;" horiz-adv-x="2074" 
d="M831 -170q-136 0 -253.5 27t-207 77.5t-160.5 122t-114.5 159.5t-69 191.5t-24 217.5t20.5 237q31 172 99 326t173 283.5t239 224t305 147.5t361 53q136 0 253 -27.5t206.5 -78t160.5 -122.5t114.5 -160.5t68.5 -192t23.5 -217.5t-21.5 -236q-30 -172 -97.5 -326.5
t-172.5 -283.5t-238.5 -223t-304 -146.5t-361.5 -52.5zM727 862q-17 -117 -4.5 -209.5t69 -149.5t148.5 -57q137 0 233 118t127 298q18 87 12 163.5t-29.5 133.5t-74 90t-121.5 33q-136 0 -231 -118.5t-129 -301.5zM811 2181l217 428l760 -450l-96 -230z" />
    <glyph glyph-name="Ograve" unicode="&#xf2;" horiz-adv-x="2074" 
d="M831 -170q-136 0 -253.5 27t-207 77.5t-160.5 122t-114.5 159.5t-69 191.5t-24 217.5t20.5 237q31 172 99 326t173 283.5t239 224t305 147.5t361 53q136 0 253 -27.5t206.5 -78t160.5 -122.5t114.5 -160.5t68.5 -192t23.5 -217.5t-21.5 -236q-30 -172 -97.5 -326.5
t-172.5 -283.5t-238.5 -223t-304 -146.5t-361.5 -52.5zM727 862q-17 -117 -4.5 -209.5t69 -149.5t148.5 -57q137 0 233 118t127 298q18 87 12 163.5t-29.5 133.5t-74 90t-121.5 33q-136 0 -231 -118.5t-129 -301.5zM811 2181l217 428l760 -450l-96 -230z" />
    <glyph glyph-name="Oacute" unicode="&#xd3;" horiz-adv-x="2074" 
d="M831 -170q-136 0 -253.5 27t-207 77.5t-160.5 122t-114.5 159.5t-69 191.5t-24 217.5t20.5 237q31 172 99 326t173 283.5t239 224t305 147.5t361 53q136 0 253 -27.5t206.5 -78t160.5 -122.5t114.5 -160.5t68.5 -192t23.5 -217.5t-21.5 -236q-30 -172 -97.5 -326.5
t-172.5 -283.5t-238.5 -223t-304 -146.5t-361.5 -52.5zM727 862q-17 -117 -4.5 -209.5t69 -149.5t148.5 -57q137 0 233 118t127 298q18 87 12 163.5t-29.5 133.5t-74 90t-121.5 33q-136 0 -231 -118.5t-129 -301.5zM795 2171l825 399l174 -454l-917 -181z" />
    <glyph glyph-name="Oacute" unicode="&#xf3;" horiz-adv-x="2074" 
d="M831 -170q-136 0 -253.5 27t-207 77.5t-160.5 122t-114.5 159.5t-69 191.5t-24 217.5t20.5 237q31 172 99 326t173 283.5t239 224t305 147.5t361 53q136 0 253 -27.5t206.5 -78t160.5 -122.5t114.5 -160.5t68.5 -192t23.5 -217.5t-21.5 -236q-30 -172 -97.5 -326.5
t-172.5 -283.5t-238.5 -223t-304 -146.5t-361.5 -52.5zM727 862q-17 -117 -4.5 -209.5t69 -149.5t148.5 -57q137 0 233 118t127 298q18 87 12 163.5t-29.5 133.5t-74 90t-121.5 33q-136 0 -231 -118.5t-129 -301.5zM795 2171l825 399l174 -454l-917 -181z" />
    <glyph glyph-name="Ocircumflex" unicode="&#xd4;" horiz-adv-x="2074" 
d="M831 -170q-136 0 -253.5 27t-207 77.5t-160.5 122t-114.5 159.5t-69 191.5t-24 217.5t20.5 237q31 172 99 326t173 283.5t239 224t305 147.5t361 53q136 0 253 -27.5t206.5 -78t160.5 -122.5t114.5 -160.5t68.5 -192t23.5 -217.5t-21.5 -236q-30 -172 -97.5 -326.5
t-172.5 -283.5t-238.5 -223t-304 -146.5t-361.5 -52.5zM463 1974l643 492h514l444 -492h-596l-170 180l-190 -180h-645zM727 862q-17 -117 -4.5 -209.5t69 -149.5t148.5 -57q137 0 233 118t127 298q18 87 12 163.5t-29.5 133.5t-74 90t-121.5 33q-136 0 -231 -118.5
t-129 -301.5z" />
    <glyph glyph-name="Ocircumflex" unicode="&#xf4;" horiz-adv-x="2074" 
d="M831 -170q-136 0 -253.5 27t-207 77.5t-160.5 122t-114.5 159.5t-69 191.5t-24 217.5t20.5 237q31 172 99 326t173 283.5t239 224t305 147.5t361 53q136 0 253 -27.5t206.5 -78t160.5 -122.5t114.5 -160.5t68.5 -192t23.5 -217.5t-21.5 -236q-30 -172 -97.5 -326.5
t-172.5 -283.5t-238.5 -223t-304 -146.5t-361.5 -52.5zM463 1974l643 492h514l444 -492h-596l-170 180l-190 -180h-645zM727 862q-17 -117 -4.5 -209.5t69 -149.5t148.5 -57q137 0 233 118t127 298q18 87 12 163.5t-29.5 133.5t-74 90t-121.5 33q-136 0 -231 -118.5
t-129 -301.5z" />
    <glyph glyph-name="Otilde" unicode="&#xd5;" horiz-adv-x="2074" 
d="M831 -170q-136 0 -253.5 27t-207 77.5t-160.5 122t-114.5 159.5t-69 191.5t-24 217.5t20.5 237q31 172 99 326t173 283.5t239 224t305 147.5t361 53q136 0 253 -27.5t206.5 -78t160.5 -122.5t114.5 -160.5t68.5 -192t23.5 -217.5t-21.5 -236q-30 -172 -97.5 -326.5
t-172.5 -283.5t-238.5 -223t-304 -146.5t-361.5 -52.5zM582 1995q68 264 189 413.5t298 149.5q59 0 111 -16.5t89 -39.5t70.5 -46t70 -39.5t73.5 -16.5q26 0 47.5 8t35 21t24 29t15.5 32t8.5 29t4.5 21v8h434q-118 -553 -514 -553q-65 0 -117.5 16.5t-84.5 39.5t-60 46.5
t-59 40t-66 16.5q-42 0 -75 -40t-46 -80l-12 -39h-436zM727 862q-17 -117 -4.5 -209.5t69 -149.5t148.5 -57q137 0 233 118t127 298q18 87 12 163.5t-29.5 133.5t-74 90t-121.5 33q-136 0 -231 -118.5t-129 -301.5z" />
    <glyph glyph-name="Otilde" unicode="&#xf5;" horiz-adv-x="2074" 
d="M831 -170q-136 0 -253.5 27t-207 77.5t-160.5 122t-114.5 159.5t-69 191.5t-24 217.5t20.5 237q31 172 99 326t173 283.5t239 224t305 147.5t361 53q136 0 253 -27.5t206.5 -78t160.5 -122.5t114.5 -160.5t68.5 -192t23.5 -217.5t-21.5 -236q-30 -172 -97.5 -326.5
t-172.5 -283.5t-238.5 -223t-304 -146.5t-361.5 -52.5zM582 1995q68 264 189 413.5t298 149.5q59 0 111 -16.5t89 -39.5t70.5 -46t70 -39.5t73.5 -16.5q26 0 47.5 8t35 21t24 29t15.5 32t8.5 29t4.5 21v8h434q-118 -553 -514 -553q-65 0 -117.5 16.5t-84.5 39.5t-60 46.5
t-59 40t-66 16.5q-42 0 -75 -40t-46 -80l-12 -39h-436zM727 862q-17 -117 -4.5 -209.5t69 -149.5t148.5 -57q137 0 233 118t127 298q18 87 12 163.5t-29.5 133.5t-74 90t-121.5 33q-136 0 -231 -118.5t-129 -301.5z" />
    <glyph glyph-name="Odieresis" unicode="&#xd6;" horiz-adv-x="2074" 
d="M831 -170q-136 0 -253.5 27t-207 77.5t-160.5 122t-114.5 159.5t-69 191.5t-24 217.5t20.5 237q31 172 99 326t173 283.5t239 224t305 147.5t361 53q136 0 253 -27.5t206.5 -78t160.5 -122.5t114.5 -160.5t68.5 -192t23.5 -217.5t-21.5 -236q-30 -172 -97.5 -326.5
t-172.5 -283.5t-238.5 -223t-304 -146.5t-361.5 -52.5zM600 2281q21 131 131.5 220.5t259.5 89.5q151 0 236 -90t65 -220q-21 -129 -132 -218t-261 -89t-235 89t-64 218zM727 862q-17 -117 -4.5 -209.5t69 -149.5t148.5 -57q137 0 233 118t127 298q18 87 12 163.5
t-29.5 133.5t-74 90t-121.5 33q-136 0 -231 -118.5t-129 -301.5zM1343 2281q19 131 130.5 220.5t261.5 89.5t234 -89.5t63 -220.5q-19 -129 -129.5 -218t-260.5 -89t-234 89t-65 218z" />
    <glyph glyph-name="Odieresis" unicode="&#xf6;" horiz-adv-x="2074" 
d="M831 -170q-136 0 -253.5 27t-207 77.5t-160.5 122t-114.5 159.5t-69 191.5t-24 217.5t20.5 237q31 172 99 326t173 283.5t239 224t305 147.5t361 53q136 0 253 -27.5t206.5 -78t160.5 -122.5t114.5 -160.5t68.5 -192t23.5 -217.5t-21.5 -236q-30 -172 -97.5 -326.5
t-172.5 -283.5t-238.5 -223t-304 -146.5t-361.5 -52.5zM600 2281q21 131 131.5 220.5t259.5 89.5q151 0 236 -90t65 -220q-21 -129 -132 -218t-261 -89t-235 89t-64 218zM727 862q-17 -117 -4.5 -209.5t69 -149.5t148.5 -57q137 0 233 118t127 298q18 87 12 163.5
t-29.5 133.5t-74 90t-121.5 33q-136 0 -231 -118.5t-129 -301.5zM1343 2281q19 131 130.5 220.5t261.5 89.5t234 -89.5t63 -220.5q-19 -129 -129.5 -218t-260.5 -89t-234 89t-65 218z" />
    <glyph glyph-name="multiply" unicode="&#xd7;" horiz-adv-x="1470" 
d="M-121 377l457 602l-291 532h631l117 -282l202 282h557l-454 -600l288 -534h-628l-119 282l-203 -282h-557z" />
    <glyph glyph-name="Oslash" unicode="&#xd8;" horiz-adv-x="2074" 
d="M831 -170q-105 0 -188 14h-522l115 187q-150 139 -204 355t-9 476q31 172 99 326t173 283.5t239 224t305 147.5t361 53q94 0 176 -12h549l-123 -198q146 -139 197 -353.5t6 -470.5q-30 -172 -97.5 -326.5t-172.5 -283.5t-238.5 -223t-304 -146.5t-361.5 -52.5zM721 819
l274 447q-101 -36 -171 -145t-97 -259zM1057 473q92 42 155.5 146.5t87.5 242.5q0 2 3 8z" />
    <glyph glyph-name="Oslash" unicode="&#xf8;" horiz-adv-x="2074" 
d="M831 -170q-105 0 -188 14h-522l115 187q-150 139 -204 355t-9 476q31 172 99 326t173 283.5t239 224t305 147.5t361 53q94 0 176 -12h549l-123 -198q146 -139 197 -353.5t6 -470.5q-30 -172 -97.5 -326.5t-172.5 -283.5t-238.5 -223t-304 -146.5t-361.5 -52.5zM721 819
l274 447q-101 -36 -171 -145t-97 -259zM1057 473q92 42 155.5 146.5t87.5 242.5q0 2 3 8z" />
    <glyph glyph-name="Ugrave" unicode="&#xd9;" horiz-adv-x="2080" 
d="M852 -170q-214 0 -376.5 59t-270 177t-146 306.5t-0.5 436.5l170 1087h695q-125 -756 -170 -1034q-32 -196 28.5 -286.5t188.5 -90.5q126 0 213.5 101.5t120.5 275.5l170 1034h694l-170 -1087q-39 -215 -132 -393t-235.5 -309.5t-342 -204t-437.5 -72.5zM813 2181
l217 428l760 -450l-96 -230z" />
    <glyph glyph-name="Ugrave" unicode="&#xf9;" horiz-adv-x="2080" 
d="M852 -170q-214 0 -376.5 59t-270 177t-146 306.5t-0.5 436.5l170 1087h695q-125 -756 -170 -1034q-32 -196 28.5 -286.5t188.5 -90.5q126 0 213.5 101.5t120.5 275.5l170 1034h694l-170 -1087q-39 -215 -132 -393t-235.5 -309.5t-342 -204t-437.5 -72.5zM813 2181
l217 428l760 -450l-96 -230z" />
    <glyph glyph-name="Uacute" unicode="&#xda;" horiz-adv-x="2080" 
d="M852 -170q-214 0 -376.5 59t-270 177t-146 306.5t-0.5 436.5l170 1087h695q-125 -756 -170 -1034q-32 -196 28.5 -286.5t188.5 -90.5q126 0 213.5 101.5t120.5 275.5l170 1034h694l-170 -1087q-39 -215 -132 -393t-235.5 -309.5t-342 -204t-437.5 -72.5zM797 2171
l825 399l174 -454l-917 -181z" />
    <glyph glyph-name="Uacute" unicode="&#xfa;" horiz-adv-x="2080" 
d="M852 -170q-214 0 -376.5 59t-270 177t-146 306.5t-0.5 436.5l170 1087h695q-125 -756 -170 -1034q-32 -196 28.5 -286.5t188.5 -90.5q126 0 213.5 101.5t120.5 275.5l170 1034h694l-170 -1087q-39 -215 -132 -393t-235.5 -309.5t-342 -204t-437.5 -72.5zM797 2171
l825 399l174 -454l-917 -181z" />
    <glyph glyph-name="Ucircumflex" unicode="&#xdb;" horiz-adv-x="2080" 
d="M852 -170q-214 0 -376.5 59t-270 177t-146 306.5t-0.5 436.5l170 1087h695q-125 -756 -170 -1034q-32 -196 28.5 -286.5t188.5 -90.5q126 0 213.5 101.5t120.5 275.5l170 1034h694l-170 -1087q-39 -215 -132 -393t-235.5 -309.5t-342 -204t-437.5 -72.5zM465 1974
l643 492h514l444 -492h-596l-170 180l-190 -180h-645z" />
    <glyph glyph-name="Ucircumflex" unicode="&#xfb;" horiz-adv-x="2080" 
d="M852 -170q-214 0 -376.5 59t-270 177t-146 306.5t-0.5 436.5l170 1087h695q-125 -756 -170 -1034q-32 -196 28.5 -286.5t188.5 -90.5q126 0 213.5 101.5t120.5 275.5l170 1034h694l-170 -1087q-39 -215 -132 -393t-235.5 -309.5t-342 -204t-437.5 -72.5zM465 1974
l643 492h514l444 -492h-596l-170 180l-190 -180h-645z" />
    <glyph glyph-name="Udieresis" unicode="&#xdc;" horiz-adv-x="2080" 
d="M852 -170q-214 0 -376.5 59t-270 177t-146 306.5t-0.5 436.5l170 1087h695q-125 -756 -170 -1034q-32 -196 28.5 -286.5t188.5 -90.5q126 0 213.5 101.5t120.5 275.5l170 1034h694l-170 -1087q-39 -215 -132 -393t-235.5 -309.5t-342 -204t-437.5 -72.5zM602 2281
q21 131 131.5 220.5t259.5 89.5q151 0 236 -90t65 -220q-21 -129 -132 -218t-261 -89t-235 89t-64 218zM1346 2281q19 131 130 220.5t261 89.5t234 -89.5t63 -220.5q-19 -129 -129 -218t-260 -89t-234 89t-65 218z" />
    <glyph glyph-name="Udieresis" unicode="&#xfc;" horiz-adv-x="2080" 
d="M852 -170q-214 0 -376.5 59t-270 177t-146 306.5t-0.5 436.5l170 1087h695q-125 -756 -170 -1034q-32 -196 28.5 -286.5t188.5 -90.5q126 0 213.5 101.5t120.5 275.5l170 1034h694l-170 -1087q-39 -215 -132 -393t-235.5 -309.5t-342 -204t-437.5 -72.5zM602 2281
q21 131 131.5 220.5t259.5 89.5q151 0 236 -90t65 -220q-21 -129 -132 -218t-261 -89t-235 89t-64 218zM1346 2281q19 131 130 220.5t261 89.5t234 -89.5t63 -220.5q-19 -129 -129 -218t-260 -89t-234 89t-65 218z" />
    <glyph glyph-name="Yacute" unicode="&#xdd;" horiz-adv-x="1486" 
d="M258 0l100 606l-401 1290h475l-61 177l825 399l174 -455l-752 -147l158 -717l377 743h709l-820 -1267l-102 -629h-682z" />
    <glyph glyph-name="Yacute" unicode="&#xfd;" horiz-adv-x="1486" 
d="M258 0l100 606l-401 1290h475l-61 177l825 399l174 -455l-752 -147l158 -717l377 743h709l-820 -1267l-102 -629h-682z" />
    <glyph glyph-name="Thorn" unicode="&#xde;" horiz-adv-x="1949" 
d="M-43 -6l295 1894l682 6l-33 -217q47 1 144.5 2t140.5 2q115 1 214.5 -17.5t175.5 -53.5t137.5 -84.5t100 -110.5t63 -131.5t27.5 -147.5t-8 -159q-36 -231 -182 -400t-377 -257t-524 -91h-137l-37 -233zM760 774q96 2 239 2q96 0 168.5 62t83.5 178q10 90 -42.5 143
t-147.5 53q-37 -1 -116.5 -2t-117.5 -2z" />
    <glyph glyph-name="Thorn" unicode="&#xfe;" horiz-adv-x="1949" 
d="M-43 -6l295 1894l682 6l-33 -217q47 1 144.5 2t140.5 2q115 1 214.5 -17.5t175.5 -53.5t137.5 -84.5t100 -110.5t63 -131.5t27.5 -147.5t-8 -159q-36 -231 -182 -400t-377 -257t-524 -91h-137l-37 -233zM760 774q96 2 239 2q96 0 168.5 62t83.5 178q10 90 -42.5 143
t-147.5 53q-37 -1 -116.5 -2t-117.5 -2z" />
    <glyph glyph-name="uni1E9E" unicode="&#xdf;" horiz-adv-x="1955" 
d="M764 0l82 469h98q85 0 140.5 33t68.5 98q15 67 -20 104t-117 37h-125l63 428h170q84 0 138 40t69 108q14 70 -35.5 116t-158.5 46q-70 0 -133 -28t-116.5 -98.5t-72.5 -176.5l-229 -1346h-672l250 1518q30 142 109.5 263.5t202 214.5t297 146t380.5 53q109 0 207 -14.5
t176.5 -41t145.5 -64t114.5 -83.5t83.5 -99t52.5 -111.5t21.5 -120.5t-10 -125q-29 -139 -135 -238t-273 -155q109 -19 185 -88.5t106 -160.5t20 -189q-27 -243 -235 -389t-553 -146h-295z" />
    <glyph glyph-name="uni1E9E" unicode="&#x1e9e;" horiz-adv-x="1955" 
d="M764 0l82 469h98q85 0 140.5 33t68.5 98q15 67 -20 104t-117 37h-125l63 428h170q84 0 138 40t69 108q14 70 -35.5 116t-158.5 46q-70 0 -133 -28t-116.5 -98.5t-72.5 -176.5l-229 -1346h-672l250 1518q30 142 109.5 263.5t202 214.5t297 146t380.5 53q109 0 207 -14.5
t176.5 -41t145.5 -64t114.5 -83.5t83.5 -99t52.5 -111.5t21.5 -120.5t-10 -125q-29 -139 -135 -238t-273 -155q109 -19 185 -88.5t106 -160.5t20 -189q-27 -243 -235 -389t-553 -146h-295z" />
    <glyph glyph-name="divide" unicode="&#xf7;" horiz-adv-x="966" 
d="M659 1239q-174 0 -298.5 96t-124.5 228q0 135 124 230t299 95q177 0 301.5 -95t124.5 -230q0 -133 -125 -228.5t-301 -95.5zM-6 324q0 88 57 163t154 118.5t211 43.5q177 0 301.5 -95t124.5 -230q0 -133 -125 -228.5t-301 -95.5q-173 0 -297.5 96t-124.5 228zM12 721
l101 448h983l-95 -448h-989z" />
    <glyph glyph-name="Ydieresis" unicode="&#xff;" horiz-adv-x="1486" 
d="M258 0l100 606l-401 1290h391q-94 34 -140.5 111.5t-31.5 175.5q21 131 131.5 220t259.5 89q151 0 236 -89.5t65 -219.5q-15 -98 -86 -175.5t-174 -111.5h4l164 -743l371 729q-119 22 -180.5 104.5t-46.5 196.5q19 131 130 220t261 89t234 -89t63 -220
q-13 -98 -83 -175.5t-173 -111.5h510l-820 -1267l-102 -629h-682z" />
    <glyph glyph-name="Ydieresis" unicode="&#x178;" horiz-adv-x="1486" 
d="M258 0l100 606l-401 1290h391q-94 34 -140.5 111.5t-31.5 175.5q21 131 131.5 220t259.5 89q151 0 236 -89.5t65 -219.5q-15 -98 -86 -175.5t-174 -111.5h4l164 -743l371 729q-119 22 -180.5 104.5t-46.5 196.5q19 131 130 220t261 89t234 -89t63 -220
q-13 -98 -83 -175.5t-173 -111.5h510l-820 -1267l-102 -629h-682z" />
    <glyph glyph-name="Amacron" unicode="&#x100;" horiz-adv-x="1900" 
d="M-131 0l721 1896h1134l45 -1896h-682v354h-415l-121 -354h-682zM522 1956l82 436h1249l-77 -436h-1254zM823 799h264v780z" />
    <glyph glyph-name="Amacron" unicode="&#x101;" horiz-adv-x="1900" 
d="M-131 0l721 1896h1134l45 -1896h-682v354h-415l-121 -354h-682zM522 1956l82 436h1249l-77 -436h-1254zM823 799h264v780z" />
    <glyph glyph-name="Abreve" unicode="&#x102;" horiz-adv-x="1900" 
d="M-131 0l721 1896h1134l45 -1896h-682v354h-415l-121 -354h-682zM575 2591h553q-13 -77 20 -125.5t109 -48.5q69 0 116.5 49.5t56.5 124.5h555q-18 -129 -88 -245t-175 -200.5t-245.5 -134t-292.5 -49.5q-203 0 -353 84.5t-216.5 228t-39.5 316.5zM823 799h264v780z" />
    <glyph glyph-name="Abreve" unicode="&#x103;" horiz-adv-x="1900" 
d="M-131 0l721 1896h1134l45 -1896h-682v354h-415l-121 -354h-682zM575 2591h553q-13 -77 20 -125.5t109 -48.5q69 0 116.5 49.5t56.5 124.5h555q-18 -129 -88 -245t-175 -200.5t-245.5 -134t-292.5 -49.5q-203 0 -353 84.5t-216.5 228t-39.5 316.5zM823 799h264v780z" />
    <glyph glyph-name="Aogonek" unicode="&#x104;" horiz-adv-x="1900" 
d="M-131 0l721 1896h1134l45 -1896h-415q-104 -94 -74 -158q16 -35 85.5 -45.5t131.5 -4.5l62 7l149 -403q-291 -54 -505 -51t-338 68t-132 184q-10 119 71 237t283 252v268h-415l-121 -354h-682zM823 799h264v780z" />
    <glyph glyph-name="Aogonek" unicode="&#x105;" horiz-adv-x="1900" 
d="M-131 0l721 1896h1134l45 -1896h-415q-104 -94 -74 -158q16 -35 85.5 -45.5t131.5 -4.5l62 7l149 -403q-291 -54 -505 -51t-338 68t-132 184q-10 119 71 237t283 252v268h-415l-121 -354h-682zM823 799h264v780z" />
    <glyph glyph-name="Cacute" unicode="&#x106;" horiz-adv-x="1988" 
d="M829 -170q-137 0 -254.5 27t-207 77.5t-160 122t-113.5 159.5t-68.5 191.5t-23.5 217.5t21 237q31 172 98.5 326t172 283.5t238 224t304 147.5t360.5 53q147 0 273 -44t219.5 -125t157.5 -191t92 -246t18 -286h-645q-3 127 -59 202.5t-165 75.5q-137 0 -233 -119
t-127 -301q-19 -117 -7 -209.5t69.5 -149.5t150.5 -57q110 0 193 74.5t129 200.5h645q-55 -187 -161 -350.5t-245.5 -283t-314 -188.5t-357.5 -69zM752 2171l825 399l174 -454l-917 -181z" />
    <glyph glyph-name="Cacute" unicode="&#x107;" horiz-adv-x="1988" 
d="M829 -170q-137 0 -254.5 27t-207 77.5t-160 122t-113.5 159.5t-68.5 191.5t-23.5 217.5t21 237q31 172 98.5 326t172 283.5t238 224t304 147.5t360.5 53q147 0 273 -44t219.5 -125t157.5 -191t92 -246t18 -286h-645q-3 127 -59 202.5t-165 75.5q-137 0 -233 -119
t-127 -301q-19 -117 -7 -209.5t69.5 -149.5t150.5 -57q110 0 193 74.5t129 200.5h645q-55 -187 -161 -350.5t-245.5 -283t-314 -188.5t-357.5 -69zM752 2171l825 399l174 -454l-917 -181z" />
    <glyph glyph-name="Ccircumflex" unicode="&#x108;" horiz-adv-x="1988" 
d="M829 -170q-137 0 -254.5 27t-207 77.5t-160 122t-113.5 159.5t-68.5 191.5t-23.5 217.5t21 237q31 172 98.5 326t172 283.5t238 224t304 147.5t360.5 53q147 0 273 -44t219.5 -125t157.5 -191t92 -246t18 -286h-645q-3 127 -59 202.5t-165 75.5q-137 0 -233 -119
t-127 -301q-19 -117 -7 -209.5t69.5 -149.5t150.5 -57q110 0 193 74.5t129 200.5h645q-55 -187 -161 -350.5t-245.5 -283t-314 -188.5t-357.5 -69zM420 1974l643 492h514l444 -492h-596l-170 180l-190 -180h-645z" />
    <glyph glyph-name="Ccircumflex" unicode="&#x109;" horiz-adv-x="1988" 
d="M829 -170q-137 0 -254.5 27t-207 77.5t-160 122t-113.5 159.5t-68.5 191.5t-23.5 217.5t21 237q31 172 98.5 326t172 283.5t238 224t304 147.5t360.5 53q147 0 273 -44t219.5 -125t157.5 -191t92 -246t18 -286h-645q-3 127 -59 202.5t-165 75.5q-137 0 -233 -119
t-127 -301q-19 -117 -7 -209.5t69.5 -149.5t150.5 -57q110 0 193 74.5t129 200.5h645q-55 -187 -161 -350.5t-245.5 -283t-314 -188.5t-357.5 -69zM420 1974l643 492h514l444 -492h-596l-170 180l-190 -180h-645z" />
    <glyph glyph-name="Cdotaccent" unicode="&#x10a;" horiz-adv-x="1988" 
d="M829 -170q-137 0 -254.5 27t-207 77.5t-160 122t-113.5 159.5t-68.5 191.5t-23.5 217.5t21 237q31 172 98.5 326t172 283.5t238 224t304 147.5t360.5 53q147 0 273 -44t219.5 -125t157.5 -191t92 -246t18 -286h-645q-3 127 -59 202.5t-165 75.5q-137 0 -233 -119
t-127 -301q-19 -117 -7 -209.5t69.5 -149.5t150.5 -57q110 0 193 74.5t129 200.5h645q-55 -187 -161 -350.5t-245.5 -283t-314 -188.5t-357.5 -69zM928 2281q21 131 131.5 220.5t259.5 89.5q151 0 236 -90t65 -220q-21 -129 -132 -218t-261 -89t-235 89t-64 218z" />
    <glyph glyph-name="Cdotaccent" unicode="&#x10b;" horiz-adv-x="1988" 
d="M829 -170q-137 0 -254.5 27t-207 77.5t-160 122t-113.5 159.5t-68.5 191.5t-23.5 217.5t21 237q31 172 98.5 326t172 283.5t238 224t304 147.5t360.5 53q147 0 273 -44t219.5 -125t157.5 -191t92 -246t18 -286h-645q-3 127 -59 202.5t-165 75.5q-137 0 -233 -119
t-127 -301q-19 -117 -7 -209.5t69.5 -149.5t150.5 -57q110 0 193 74.5t129 200.5h645q-55 -187 -161 -350.5t-245.5 -283t-314 -188.5t-357.5 -69zM928 2281q21 131 131.5 220.5t259.5 89.5q151 0 236 -90t65 -220q-21 -129 -132 -218t-261 -89t-235 89t-64 218z" />
    <glyph glyph-name="Ccaron" unicode="&#x10c;" horiz-adv-x="1988" 
d="M829 -170q-137 0 -254.5 27t-207 77.5t-160 122t-113.5 159.5t-68.5 191.5t-23.5 217.5t21 237q31 172 98.5 326t172 283.5t238 224t304 147.5t360.5 53q147 0 273 -44t219.5 -125t157.5 -191t92 -246t18 -286h-645q-3 127 -59 202.5t-165 75.5q-137 0 -233 -119
t-127 -301q-19 -117 -7 -209.5t69.5 -149.5t150.5 -57q110 0 193 74.5t129 200.5h645q-55 -187 -161 -350.5t-245.5 -283t-314 -188.5t-357.5 -69zM506 2466h561l166 -180l246 180h628l-641 -492h-514z" />
    <glyph glyph-name="Ccaron" unicode="&#x10d;" horiz-adv-x="1988" 
d="M829 -170q-137 0 -254.5 27t-207 77.5t-160 122t-113.5 159.5t-68.5 191.5t-23.5 217.5t21 237q31 172 98.5 326t172 283.5t238 224t304 147.5t360.5 53q147 0 273 -44t219.5 -125t157.5 -191t92 -246t18 -286h-645q-3 127 -59 202.5t-165 75.5q-137 0 -233 -119
t-127 -301q-19 -117 -7 -209.5t69.5 -149.5t150.5 -57q110 0 193 74.5t129 200.5h645q-55 -187 -161 -350.5t-245.5 -283t-314 -188.5t-357.5 -69zM506 2466h561l166 -180l246 180h628l-641 -492h-514z" />
    <glyph glyph-name="Dcaron" unicode="&#x10e;" horiz-adv-x="1861" 
d="M-33 0l312 1896h682h147q111 0 210 -27t175 -76.5t139 -118t102.5 -151t64.5 -177t26 -195t-13 -205.5q-25 -141 -83.5 -277t-151 -257t-208 -213t-264 -145.5t-308.5 -53.5h-148h-682zM440 2466h561l166 -180l246 180h629l-641 -492h-514zM739 547h68q51 0 106.5 28
t108 81t92.5 141t53 196q12 99 4 172.5t-25.5 124t-46 81.5t-58.5 45t-62 14h-94z" />
    <glyph glyph-name="Dcaron" unicode="&#x10f;" horiz-adv-x="1861" 
d="M-33 0l312 1896h682h147q111 0 210 -27t175 -76.5t139 -118t102.5 -151t64.5 -177t26 -195t-13 -205.5q-25 -141 -83.5 -277t-151 -257t-208 -213t-264 -145.5t-308.5 -53.5h-148h-682zM440 2466h561l166 -180l246 180h629l-641 -492h-514zM739 547h68q51 0 106.5 28
t108 81t92.5 141t53 196q12 99 4 172.5t-25.5 124t-46 81.5t-58.5 45t-62 14h-94z" />
    <glyph glyph-name="Dcroat" unicode="&#x110;" horiz-adv-x="1861" 
d="M-33 0l123 743h-129l66 414h131l121 739h682h147q111 0 210 -27t175 -76.5t139 -118t102.5 -151t64.5 -177t26 -195t-13 -205.5q-25 -141 -83.5 -277t-151 -257t-208 -213t-264 -145.5t-308.5 -53.5h-148h-682zM739 547h68q51 0 106.5 28t108 81t92.5 141t53 196
q12 99 4 172.5t-25.5 124t-46 81.5t-58.5 45t-62 14h-94l-45 -273h192l-61 -414h-199z" />
    <glyph glyph-name="Dcroat" unicode="&#x111;" horiz-adv-x="1861" 
d="M-33 0l123 743h-129l66 414h131l121 739h682h147q111 0 210 -27t175 -76.5t139 -118t102.5 -151t64.5 -177t26 -195t-13 -205.5q-25 -141 -83.5 -277t-151 -257t-208 -213t-264 -145.5t-308.5 -53.5h-148h-682zM739 547h68q51 0 106.5 28t108 81t92.5 141t53 196
q12 99 4 172.5t-25.5 124t-46 81.5t-58.5 45t-62 14h-94l-45 -273h192l-61 -414h-199z" />
    <glyph glyph-name="Emacron" unicode="&#x112;" horiz-adv-x="1675" 
d="M-55 0l313 1896h1468l-88 -483h-778l-37 -223h680l-88 -485h-672l-36 -220h870l-86 -485h-1546zM412 1956l82 436h1249l-78 -436h-1253z" />
    <glyph glyph-name="Emacron" unicode="&#x113;" horiz-adv-x="1675" 
d="M-55 0l313 1896h1468l-88 -483h-778l-37 -223h680l-88 -485h-672l-36 -220h870l-86 -485h-1546zM412 1956l82 436h1249l-78 -436h-1253z" />
    <glyph glyph-name="Edotaccent" unicode="&#x116;" horiz-adv-x="1675" 
d="M-55 0l313 1896h1468l-88 -483h-778l-37 -223h680l-88 -485h-672l-36 -220h870l-86 -485h-1546zM770 2281q21 131 131.5 220.5t259.5 89.5q151 0 236 -90t65 -220q-21 -129 -132 -218t-261 -89t-235 89t-64 218z" />
    <glyph glyph-name="Edotaccent" unicode="&#x117;" horiz-adv-x="1675" 
d="M-55 0l313 1896h1468l-88 -483h-778l-37 -223h680l-88 -485h-672l-36 -220h870l-86 -485h-1546zM770 2281q21 131 131.5 220.5t259.5 89.5q151 0 236 -90t65 -220q-21 -129 -132 -218t-261 -89t-235 89t-64 218z" />
    <glyph glyph-name="Eogonek" unicode="&#x118;" horiz-adv-x="1675" 
d="M-55 0l313 1896h1468l-88 -483h-778l-37 -223h680l-88 -485h-672l-36 -220h870l-86 -485h-602q-127 -103 -94 -176q16 -35 85.5 -45.5t131.5 -4.5l61 7l150 -404q-291 -54 -505 -51t-338 68t-132 184q-8 103 52 206.5t206 215.5h-561z" />
    <glyph glyph-name="Eogonek" unicode="&#x119;" horiz-adv-x="1675" 
d="M-55 0l313 1896h1468l-88 -483h-778l-37 -223h680l-88 -485h-672l-36 -220h870l-86 -485h-602q-127 -103 -94 -176q16 -35 85.5 -45.5t131.5 -4.5l61 7l150 -404q-291 -54 -505 -51t-338 68t-132 184q-8 103 52 206.5t206 215.5h-561z" />
    <glyph glyph-name="Ecaron" unicode="&#x11a;" horiz-adv-x="1675" 
d="M-55 0l313 1896h1468l-88 -483h-778l-37 -223h680l-88 -485h-672l-36 -220h870l-86 -485h-1546zM348 2466h561l166 -180l246 180h629l-641 -492h-514z" />
    <glyph glyph-name="Ecaron" unicode="&#x11b;" horiz-adv-x="1675" 
d="M-55 0l313 1896h1468l-88 -483h-778l-37 -223h680l-88 -485h-672l-36 -220h870l-86 -485h-1546zM348 2466h561l166 -180l246 180h629l-641 -492h-514z" />
    <glyph glyph-name="Gcircumflex" unicode="&#x11c;" horiz-adv-x="2015" 
d="M852 -170q-137 0 -254.5 27t-207 77.5t-160 122t-114 159.5t-68.5 191.5t-23.5 217.5t20.5 237q30 171 97 325.5t172 284t239 224t305 147.5t361 53q169 0 309.5 -59t236.5 -163.5t151.5 -248t61.5 -311.5h-661q-21 79 -73 123.5t-136 44.5q-136 0 -231 -118.5
t-129 -301.5q-17 -117 -4.5 -209.5t69 -149.5t148.5 -57q162 0 272 170h-303l74 406h983l-70 -330q-57 -183 -163 -341t-244 -273.5t-308.5 -181.5t-349.5 -66zM432 1974l643 492h514l445 -492h-596l-170 180l-191 -180h-645z" />
    <glyph glyph-name="Gcircumflex" unicode="&#x11d;" horiz-adv-x="2015" 
d="M852 -170q-137 0 -254.5 27t-207 77.5t-160 122t-114 159.5t-68.5 191.5t-23.5 217.5t20.5 237q30 171 97 325.5t172 284t239 224t305 147.5t361 53q169 0 309.5 -59t236.5 -163.5t151.5 -248t61.5 -311.5h-661q-21 79 -73 123.5t-136 44.5q-136 0 -231 -118.5
t-129 -301.5q-17 -117 -4.5 -209.5t69 -149.5t148.5 -57q162 0 272 170h-303l74 406h983l-70 -330q-57 -183 -163 -341t-244 -273.5t-308.5 -181.5t-349.5 -66zM432 1974l643 492h514l445 -492h-596l-170 180l-191 -180h-645z" />
    <glyph glyph-name="Gbreve" unicode="&#x11e;" horiz-adv-x="2015" 
d="M852 -170q-137 0 -254.5 27t-207 77.5t-160 122t-114 159.5t-68.5 191.5t-23.5 217.5t20.5 237q30 171 97 325.5t172 284t239 224t305 147.5t361 53q169 0 309.5 -59t236.5 -163.5t151.5 -248t61.5 -311.5h-661q-21 79 -73 123.5t-136 44.5q-136 0 -231 -118.5
t-129 -301.5q-17 -117 -4.5 -209.5t69 -149.5t148.5 -57q162 0 272 170h-303l74 406h983l-70 -330q-57 -183 -163 -341t-244 -273.5t-308.5 -181.5t-349.5 -66zM635 2591h553q-13 -77 20 -125.5t109 -48.5q69 0 116 49.5t56 124.5h555q-18 -129 -88 -245t-175 -200.5
t-245.5 -134t-292.5 -49.5q-153 0 -278 49.5t-203.5 134t-112.5 200.5t-14 245z" />
    <glyph glyph-name="Gbreve" unicode="&#x11f;" horiz-adv-x="2015" 
d="M852 -170q-137 0 -254.5 27t-207 77.5t-160 122t-114 159.5t-68.5 191.5t-23.5 217.5t20.5 237q30 171 97 325.5t172 284t239 224t305 147.5t361 53q169 0 309.5 -59t236.5 -163.5t151.5 -248t61.5 -311.5h-661q-21 79 -73 123.5t-136 44.5q-136 0 -231 -118.5
t-129 -301.5q-17 -117 -4.5 -209.5t69 -149.5t148.5 -57q162 0 272 170h-303l74 406h983l-70 -330q-57 -183 -163 -341t-244 -273.5t-308.5 -181.5t-349.5 -66zM635 2591h553q-13 -77 20 -125.5t109 -48.5q69 0 116 49.5t56 124.5h555q-18 -129 -88 -245t-175 -200.5
t-245.5 -134t-292.5 -49.5q-153 0 -278 49.5t-203.5 134t-112.5 200.5t-14 245z" />
    <glyph glyph-name="Gdotaccent" unicode="&#x120;" horiz-adv-x="2015" 
d="M852 -170q-137 0 -254.5 27t-207 77.5t-160 122t-114 159.5t-68.5 191.5t-23.5 217.5t20.5 237q30 171 97 325.5t172 284t239 224t305 147.5t361 53q169 0 309.5 -59t236.5 -163.5t151.5 -248t61.5 -311.5h-661q-21 79 -73 123.5t-136 44.5q-136 0 -231 -118.5
t-129 -301.5q-17 -117 -4.5 -209.5t69 -149.5t148.5 -57q162 0 272 170h-303l74 406h983l-70 -330q-57 -183 -163 -341t-244 -273.5t-308.5 -181.5t-349.5 -66zM940 2281q21 131 131.5 220.5t259.5 89.5q151 0 236 -90t65 -220q-21 -129 -132 -218t-261 -89t-235 89t-64 218
z" />
    <glyph glyph-name="Gdotaccent" unicode="&#x121;" horiz-adv-x="2015" 
d="M852 -170q-137 0 -254.5 27t-207 77.5t-160 122t-114 159.5t-68.5 191.5t-23.5 217.5t20.5 237q30 171 97 325.5t172 284t239 224t305 147.5t361 53q169 0 309.5 -59t236.5 -163.5t151.5 -248t61.5 -311.5h-661q-21 79 -73 123.5t-136 44.5q-136 0 -231 -118.5
t-129 -301.5q-17 -117 -4.5 -209.5t69 -149.5t148.5 -57q162 0 272 170h-303l74 406h983l-70 -330q-57 -183 -163 -341t-244 -273.5t-308.5 -181.5t-349.5 -66zM940 2281q21 131 131.5 220.5t259.5 89.5q151 0 236 -90t65 -220q-21 -129 -132 -218t-261 -89t-235 89t-64 218
z" />
    <glyph glyph-name="uni0122" unicode="&#x122;" horiz-adv-x="2015" 
d="M852 -170q-137 0 -254.5 27t-207 77.5t-160 122t-114 159.5t-68.5 191.5t-23.5 217.5t20.5 237q30 171 97 325.5t172 284t239 224t305 147.5t361 53q169 0 309.5 -59t236.5 -163.5t151.5 -248t61.5 -311.5h-661q-21 79 -73 123.5t-136 44.5q-136 0 -231 -118.5
t-129 -301.5q-17 -117 -4.5 -209.5t69 -149.5t148.5 -57q162 0 272 170h-303l74 406h983l-70 -330q-57 -183 -163 -341t-244 -273.5t-308.5 -181.5t-349.5 -66zM397 -719l154 508h637l-459 -545z" />
    <glyph glyph-name="uni0122" unicode="&#x123;" horiz-adv-x="2015" 
d="M852 -170q-137 0 -254.5 27t-207 77.5t-160 122t-114 159.5t-68.5 191.5t-23.5 217.5t20.5 237q30 171 97 325.5t172 284t239 224t305 147.5t361 53q169 0 309.5 -59t236.5 -163.5t151.5 -248t61.5 -311.5h-661q-21 79 -73 123.5t-136 44.5q-136 0 -231 -118.5
t-129 -301.5q-17 -117 -4.5 -209.5t69 -149.5t148.5 -57q162 0 272 170h-303l74 406h983l-70 -330q-57 -183 -163 -341t-244 -273.5t-308.5 -181.5t-349.5 -66zM397 -719l154 508h637l-459 -545z" />
    <glyph glyph-name="Hcircumflex" unicode="&#x124;" horiz-adv-x="2097" 
d="M-53 0l315 1896h682l-117 -706h541l117 706h682l-312 -1896h-681l114 705h-543l-116 -705h-682zM471 1974l643 492h514l445 -492h-596l-170 180l-191 -180h-645z" />
    <glyph glyph-name="Hcircumflex" unicode="&#x125;" horiz-adv-x="2097" 
d="M-53 0l315 1896h682l-117 -706h541l117 706h682l-312 -1896h-681l114 705h-543l-116 -705h-682zM471 1974l643 492h514l445 -492h-596l-170 180l-191 -180h-645z" />
    <glyph glyph-name="Hbar" unicode="&#x126;" horiz-adv-x="2097" 
d="M-53 0l315 1896h682l-29 -174h541l29 174h682l-312 -1896h-681l114 705h-543l-116 -705h-682zM827 1190h541l18 104h-542z" />
    <glyph glyph-name="Hbar" unicode="&#x127;" horiz-adv-x="2097" 
d="M-53 0l315 1896h682l-29 -174h541l29 174h682l-312 -1896h-681l114 705h-543l-116 -705h-682zM827 1190h541l18 104h-542z" />
    <glyph glyph-name="Itilde" unicode="&#x128;" horiz-adv-x="950" 
d="M-6 0l313 1896h682l-313 -1896h-682zM16 1995q68 264 189.5 413.5t298.5 149.5q59 0 111 -16.5t89 -39.5t70.5 -46t70 -39.5t73.5 -16.5q26 0 47.5 8t35 21t24 29t15.5 32t8.5 29t3.5 21l1 8h434q-118 -553 -514 -553q-65 0 -117.5 16.5t-84.5 39.5t-60 46.5t-59 40
t-66 16.5q-42 0 -75 -40t-45 -80l-13 -39h-437z" />
    <glyph glyph-name="Itilde" unicode="&#x129;" horiz-adv-x="950" 
d="M-6 0l313 1896h682l-313 -1896h-682zM16 1995q68 264 189.5 413.5t298.5 149.5q59 0 111 -16.5t89 -39.5t70.5 -46t70 -39.5t73.5 -16.5q26 0 47.5 8t35 21t24 29t15.5 32t8.5 29t3.5 21l1 8h434q-118 -553 -514 -553q-65 0 -117.5 16.5t-84.5 39.5t-60 46.5t-59 40
t-66 16.5q-42 0 -75 -40t-45 -80l-13 -39h-437z" />
    <glyph glyph-name="Imacron" unicode="&#x12a;" horiz-adv-x="950" 
d="M-6 0l313 1896h682l-313 -1896h-682zM47 1956l82 436h1249l-78 -436h-1253z" />
    <glyph glyph-name="Imacron" unicode="&#x12b;" horiz-adv-x="950" 
d="M-6 0l313 1896h682l-313 -1896h-682zM47 1956l82 436h1249l-78 -436h-1253z" />
    <glyph glyph-name="Iogonek" unicode="&#x12e;" horiz-adv-x="950" 
d="M-6 0l313 1896h682l-313 -1896h-221q-208 -142 -168 -231q16 -35 85.5 -45.5t131.5 -3.5l61 6l150 -404q-291 -54 -505 -51t-338 68t-132 184q-9 116 68 232t268 245h-82z" />
    <glyph glyph-name="Iogonek" unicode="&#x12f;" horiz-adv-x="950" 
d="M-6 0l313 1896h682l-313 -1896h-221q-208 -142 -168 -231q16 -35 85.5 -45.5t131.5 -3.5l61 6l150 -404q-291 -54 -505 -51t-338 68t-132 184q-9 116 68 232t268 245h-82z" />
    <glyph glyph-name="Idotaccent" unicode="&#x130;" horiz-adv-x="950" 
d="M-6 0l313 1896h682l-313 -1896h-682zM406 2281q21 131 131.5 220.5t259.5 89.5q151 0 236 -90t65 -220q-21 -129 -132 -218t-261 -89t-235 89t-64 218z" />
    <glyph glyph-name="IJ" unicode="&#x132;" horiz-adv-x="2830" 
d="M-6 0l313 1896h682l-313 -1896h-682zM971 721h641q-29 -130 5 -202.5t124 -72.5q62 0 112 32t84.5 91.5t58 130t40.5 162.5l170 1034h694l-170 -1034q-31 -175 -90.5 -327t-153 -283t-215 -223.5t-284.5 -145.5t-353 -53q-198 0 -346.5 63t-233.5 179.5t-109.5 281
t26.5 367.5z" />
    <glyph glyph-name="IJ" unicode="&#x133;" horiz-adv-x="2830" 
d="M-6 0l313 1896h682l-313 -1896h-682zM971 721h641q-29 -130 5 -202.5t124 -72.5q62 0 112 32t84.5 91.5t58 130t40.5 162.5l170 1034h694l-170 -1034q-31 -175 -90.5 -327t-153 -283t-215 -223.5t-284.5 -145.5t-353 -53q-198 0 -346.5 63t-233.5 179.5t-109.5 281
t26.5 367.5z" />
    <glyph glyph-name="Jcircumflex" unicode="&#x134;" horiz-adv-x="1880" 
d="M684 -170q-198 0 -347 63t-234 179.5t-109.5 281t26.5 367.5h642q-29 -130 5 -202.5t124 -72.5q62 0 111.5 32t84 91.5t58 130t40.5 162.5l170 1034h695l-170 -1034q-31 -175 -90.5 -327t-153 -283t-215 -223.5t-284.5 -145.5t-353 -53zM731 1974l643 492h514l445 -492
h-596l-170 180l-191 -180h-645z" />
    <glyph glyph-name="Jcircumflex" unicode="&#x135;" horiz-adv-x="1880" 
d="M684 -170q-198 0 -347 63t-234 179.5t-109.5 281t26.5 367.5h642q-29 -130 5 -202.5t124 -72.5q62 0 111.5 32t84 91.5t58 130t40.5 162.5l170 1034h695l-170 -1034q-31 -175 -90.5 -327t-153 -283t-215 -223.5t-284.5 -145.5t-353 -53zM731 1974l643 492h514l445 -492
h-596l-170 180l-191 -180h-645z" />
    <glyph glyph-name="uni0136" unicode="&#x136;" horiz-adv-x="2011" 
d="M1217 0l-429 885l-145 -885h-682l311 1896h682l-135 -823l662 823h856l-813 -890l530 -1006h-837zM426 -549l154 508h637l-459 -545z" />
    <glyph glyph-name="uni0136" unicode="&#x137;" horiz-adv-x="2011" 
d="M1217 0l-429 885l-145 -885h-682l311 1896h682l-135 -823l662 823h856l-813 -890l530 -1006h-837zM426 -549l154 508h637l-459 -545z" />
    <glyph glyph-name="Lacute" unicode="&#x139;" horiz-adv-x="1650" 
d="M-49 0l311 1896h682l-221 -1345h860l-86 -551h-1546zM582 2171l825 399l174 -454l-917 -181z" />
    <glyph glyph-name="Lacute" unicode="&#x13a;" horiz-adv-x="1650" 
d="M-49 0l311 1896h682l-221 -1345h860l-86 -551h-1546zM582 2171l825 399l174 -454l-917 -181z" />
    <glyph glyph-name="uni013B" unicode="&#x13b;" horiz-adv-x="1650" 
d="M-49 0l311 1896h682l-221 -1345h860l-86 -551h-1546zM246 -549l153 508h637l-458 -545z" />
    <glyph glyph-name="uni013B" unicode="&#x13c;" horiz-adv-x="1650" 
d="M-49 0l311 1896h682l-221 -1345h860l-86 -551h-1546zM246 -549l153 508h637l-458 -545z" />
    <glyph glyph-name="Lcaron" unicode="&#x13d;" horiz-adv-x="1650" 
d="M-49 0l311 1896h682l-221 -1345h860l-86 -551h-1546zM1042 1130l99 771h633l-365 -771h-367z" />
    <glyph glyph-name="Lcaron" unicode="&#x13e;" horiz-adv-x="1650" 
d="M-49 0l311 1896h682l-221 -1345h860l-86 -551h-1546zM1042 1130l99 771h633l-365 -771h-367z" />
    <glyph glyph-name="Lslash" unicode="&#x141;" horiz-adv-x="1650" 
d="M-49 0l121 733l-166 -45l106 555l150 41l100 612h682l-70 -419l367 98l-100 -555l-357 -96l-61 -373h860l-86 -551h-1546z" />
    <glyph glyph-name="Lslash" unicode="&#x142;" horiz-adv-x="1650" 
d="M-49 0l121 733l-166 -45l106 555l150 41l100 612h682l-70 -419l367 98l-100 -555l-357 -96l-61 -373h860l-86 -551h-1546z" />
    <glyph glyph-name="Nacute" unicode="&#x143;" horiz-adv-x="2129" 
d="M1190 0l-385 950l-156 -950h-682l312 1896h682l403 -837l137 837h682l-311 -1896h-682zM819 2171l826 399l174 -454l-918 -181z" />
    <glyph glyph-name="Nacute" unicode="&#x144;" horiz-adv-x="2129" 
d="M1190 0l-385 950l-156 -950h-682l312 1896h682l403 -837l137 837h682l-311 -1896h-682zM819 2171l826 399l174 -454l-918 -181z" />
    <glyph glyph-name="uni0145" unicode="&#x145;" horiz-adv-x="2129" 
d="M1190 0l-385 950l-156 -950h-682l312 1896h682l403 -837l137 837h682l-311 -1896h-682zM485 -549l154 508h637l-459 -545z" />
    <glyph glyph-name="uni0145" unicode="&#x146;" horiz-adv-x="2129" 
d="M1190 0l-385 950l-156 -950h-682l312 1896h682l403 -837l137 837h682l-311 -1896h-682zM485 -549l154 508h637l-459 -545z" />
    <glyph glyph-name="Ncaron" unicode="&#x147;" horiz-adv-x="2129" 
d="M1190 0l-385 950l-156 -950h-682l312 1896h682l403 -837l137 837h682l-311 -1896h-682zM573 2466h562l165 -180l246 180h629l-641 -492h-514z" />
    <glyph glyph-name="Ncaron" unicode="&#x148;" horiz-adv-x="2129" 
d="M1190 0l-385 950l-156 -950h-682l312 1896h682l403 -837l137 837h682l-311 -1896h-682zM573 2466h562l165 -180l246 180h629l-641 -492h-514z" />
    <glyph glyph-name="Eng" unicode="&#x14a;" horiz-adv-x="2129" 
d="M831 -672l103 518h39q81 0 135.5 45.5t75.5 124.5l-379 934l-156 -950h-682l312 1896h682l403 -837l137 837h682l-311 -1896q-31 -191 -144 -345t-283 -240.5t-364 -86.5h-250z" />
    <glyph glyph-name="Eng" unicode="&#x14b;" horiz-adv-x="2129" 
d="M831 -672l103 518h39q81 0 135.5 45.5t75.5 124.5l-379 934l-156 -950h-682l312 1896h682l403 -837l137 837h682l-311 -1896q-31 -191 -144 -345t-283 -240.5t-364 -86.5h-250z" />
    </font>
</defs>
</svg>
