<?xml version="1.0" standalone="no"?>
<!DOCTYPE svg PUBLIC "-//W3C//DTD SVG 1.1//EN" "http://www.w3.org/Graphics/SVG/1.1/DTD/svg11.dtd" >
<svg xmlns="http://www.w3.org/2000/svg" xmlns:xlink="http://www.w3.org/1999/xlink" version="1.1">
<metadata>
Created by FontForge 20170731 at Thu Jul 22 19:55:47 2021
 By Aleksey,,,
Copyright 2018 The Orbitron Project Authors (https://github.com/theleagueof/orbitron), with Reserved Font Name: "Orbitron".
</metadata>
<defs>
<font id="Orbitron-Regular" horiz-adv-x="692" >
  <font-face 
    font-family="Orbitron"
    font-weight="400"
    font-stretch="normal"
    units-per-em="1000"
    panose-1="0 0 0 0 0 0 0 0 0 0"
    ascent="800"
    descent="-200"
    x-height="578"
    cap-height="720"
    bbox="-187 -250 1350 974"
    underline-thickness="50"
    underline-position="-175"
    unicode-range="U+0020-E00C"
  />
<missing-glyph horiz-adv-x="500" 
d="M480 0v0l-460 1v719h460v-720zM460 20v0v680h-420v-679z" />
    <glyph glyph-name=".notdef" horiz-adv-x="500" 
d="M480 0v0l-460 1v719h460v-720zM460 20v0v680h-420v-679z" />
    <glyph glyph-name=".null" horiz-adv-x="0" 
 />
    <glyph glyph-name="nonmarkingreturn" horiz-adv-x="333" 
 />
    <glyph glyph-name="space" unicode=" " horiz-adv-x="272" 
 />
    <glyph glyph-name="exclam" unicode="!" horiz-adv-x="220" 
d="M58 203v0v517h82v-517h-82zM58 0v0v82h82v-82h-82z" />
    <glyph glyph-name="quotedbl" unicode="&#x22;" horiz-adv-x="372" 
d="M214 580v0v140h82v-140h-82zM59 580v0v140h82v-140h-82z" />
    <glyph glyph-name="numbersign" unicode="#" horiz-adv-x="797" 
d="M79 0v0l54 171h-101v82h127l71 220h-166v82h192l56 164h81l-57 -164h261l56 164h81l-57 -164h96v-82h-121l-71 -220h159v-82h-185l-53 -171h-82l54 171h-260l-53 -171h-82zM241 253v0h259l71 220h-260z" />
    <glyph glyph-name="dollar" unicode="$" horiz-adv-x="788" 
d="M357 -114v0v114h-203q-33 0 -60.5 16t-43.5 43.5t-16 60.5v28h81v-28q0 -16 11.5 -27.5t27.5 -11.5h203v238h-203q-33 0 -60.5 16.5t-43.5 43.5t-16 60v161q0 33 16 60.5t43.5 43.5t60.5 16h203v115h82v-115h201q33 0 61 -16t44.5 -43.5t15.5 -60.5l-1 -28h-81v27
q0 16 -11.5 28t-27.5 12h-201v-237h201q33 0 61 -16.5t44.5 -44t16.5 -60.5v-161q0 -33 -16 -60.5t-43.5 -43.5t-60.5 -16h-203v-114h-82zM154 401h203v238h-203q-16 0 -27.5 -11.5t-11.5 -27.5v-161q0 -16 11.5 -27t27.5 -11zM439 81v0l202 1q15 0 26.5 11.5t11.5 27.5v160
q0 16 -12 27.5t-27 11.5h-201v-239z" />
    <glyph glyph-name="percent" unicode="%" horiz-adv-x="966" 
d="M137 0v0v108l716 603l12 10v-107l-711 -599zM170 393q-34 0 -61.5 16.5t-44 44t-16.5 60.5v84q0 34 16.5 61.5t44 44t61.5 16.5h94q34 0 61.5 -16.5t44 -44t16.5 -61.5v-84q0 -33 -16.5 -60.5t-44 -44t-61.5 -16.5h-94v0zM109 454v0h216v0v0v204v0v0h-216v0v0v-204v0v0z
M716 -1q-34 0 -61.5 16.5t-43.5 44t-16 60.5v85q0 33 16 60.5t43.5 44t61.5 16.5h95q33 0 60.5 -16.5t44 -44t16.5 -60.5v-85q0 -33 -16.5 -60.5t-44 -44t-60.5 -16.5h-95v0zM656 60v0h215v0v0v205v0v0h-215v0v0v-205v0v0z" />
    <glyph glyph-name="ampersand" unicode="&#x26;" horiz-adv-x="938" 
d="M174 0q-33 0 -60.5 16.5t-44 44t-16.5 60.5v215q0 22 27 43.5t72 21.5q-57 43 -57 96v100q0 34 16.5 61.5t44 44t60.5 16.5h411q28 0 53 -14.5t43.5 -38t25.5 -49.5v-55h-83v34q0 16 -11.5 27.5t-27.5 11.5h-411q-16 0 -27.5 -11.5t-11.5 -27.5v-139l521 -263v139h82
v-166l134 -79v-72l-137 77q-16 -41 -48 -67t-70 -26h-485zM174 82h485q10 0 21.5 10t18.5 26l-510 257h-15q-16 0 -27.5 -11.5t-11.5 -27.5v-215q0 -16 11.5 -27.5t27.5 -11.5z" />
    <glyph glyph-name="quotesingle" unicode="'" horiz-adv-x="224" 
d="M59 580v0v140h82v-140h-82z" />
    <glyph glyph-name="parenleft" unicode="(" horiz-adv-x="277" 
d="M173 0q-33 0 -60.5 16.5t-44 44t-16.5 60.5v477q0 34 16.5 61.5t44 44t60.5 16.5h29v-83h-29q-16 0 -27.5 -11.5t-11.5 -27.5v-477q0 -16 11.5 -27.5t27.5 -11.5h29v-82h-29v0z" />
    <glyph glyph-name="parenright" unicode=")" horiz-adv-x="278" 
d="M56 0v0v82h28q16 0 27.5 11.5t11.5 27.5v477q0 16 -11.5 27.5t-27.5 11.5h-28v83h28q33 0 61 -16.5t44.5 -44t16.5 -61.5v-477q0 -33 -16.5 -60.5t-44.5 -44t-61 -16.5h-28z" />
    <glyph glyph-name="asterisk" unicode="*" horiz-adv-x="491" 
d="M147 315v0l-67 47l90 126l-145 47l24 79l147 -49v154h82v-153l145 48l27 -79l-146 -47l90 -125l-66 -48l-91 123z" />
    <glyph glyph-name="plus" unicode="+" horiz-adv-x="433" 
d="M169 100v0v155h-152v82h152v153h82v-153h156v-82h-156v-155h-82z" />
    <glyph glyph-name="comma" unicode="," horiz-adv-x="193" 
d="M54 -131v0v213h82v-98q0 -27 -10.5 -50t-29 -40t-42.5 -25z" />
    <glyph glyph-name="hyphen" unicode="-" horiz-adv-x="517" 
d="M59 255v0v82h390v-82h-390z" />
    <glyph glyph-name="period" unicode="." horiz-adv-x="214" 
d="M54 0v0v82h82v-82h-82z" />
    <glyph glyph-name="slash" unicode="/" horiz-adv-x="521" 
d="M6 0v0v106l499 606l7 8v-104l-498 -606z" />
    <glyph glyph-name="zero" unicode="0" horiz-adv-x="834" 
d="M178 0q-34 0 -61.5 16.5t-43.5 44t-16 60.5v477q0 34 16 61.5t43.5 44t61.5 16.5h485q33 0 60.5 -16.5t44 -44t16.5 -61.5v-477q0 -33 -16.5 -60.5t-44 -44t-60.5 -16.5h-485v0zM149 82v0h514q16 0 27.5 11.5t11.5 27.5v417zM139 181v0l552 456h-513q-16 0 -27.5 -11.5
t-11.5 -27.5v-417z" />
    <glyph glyph-name="one" unicode="1" horiz-adv-x="391" 
d="M219 0v0v628l-111 -133h-107l189 225h112v-720h-83z" />
    <glyph glyph-name="two" unicode="2" horiz-adv-x="830" 
d="M57 0v0v270q0 34 16 61.5t43.5 43.5t61.5 16h485q16 0 27.5 11.5t11.5 27.5v169q0 16 -11.5 27.5t-27.5 11.5h-485q-16 0 -27.5 -11.5t-11.5 -27.5v-28h-82v28q0 34 16 61.5t43.5 44t61.5 16.5h485q33 0 60.5 -16.5t44 -44t16.5 -61.5v-169q0 -33 -16.5 -60.5t-44 -44
t-60.5 -16.5h-485q-16 0 -27.5 -11.5t-11.5 -27.5v-149q0 -16 11.5 -27.5t27.5 -11.5h606v-82h-727z" />
    <glyph glyph-name="three" unicode="3" horiz-adv-x="826" 
d="M175 0q-34 0 -61.5 16.5t-44 44t-16.5 60.5v16h83v-16q0 -16 11.5 -27.5t27.5 -11.5h485q16 0 27.5 11.5t11.5 27.5v167q0 16 -11.5 27.5t-27.5 11.5h-469v82h437q16 0 27.5 11.5t11.5 27.5v151q0 16 -11.5 27.5t-27.5 11.5h-453q-16 0 -27.5 -11.5t-11.5 -27.5v-26h-83
v26q0 34 16.5 61.5t44 44t61.5 16.5h453q34 0 61.5 -16.5t43.5 -44t16 -61.5v-151q0 -14 -3.5 -27.5t-8.5 -24.5q25 -24 34.5 -53t9.5 -55v-167q0 -33 -16.5 -60.5t-44 -44t-60.5 -16.5h-485v0z" />
    <glyph glyph-name="four" unicode="4" horiz-adv-x="730" 
d="M508 0v0v186h-502v92l492 443h92v-453h112v-82h-112v-186h-82zM111 268v0h397v342z" />
    <glyph glyph-name="five" unicode="5" horiz-adv-x="830" 
d="M178 0q-34 0 -61.5 16.5t-43.5 44t-16 60.5v29h82v-29q0 -16 11.5 -27.5t27.5 -11.5h485q16 0 27.5 11.5t11.5 27.5v170q0 16 -11.5 27.5t-27.5 11.5h-606v391h727v-83h-606q-16 0 -27.5 -11.5t-11.5 -27.5v-147q0 -16 11.5 -28t27.5 -12h485q33 0 60.5 -16t44 -43.5
t16.5 -61.5v-170q0 -33 -16.5 -60.5t-44 -44t-60.5 -16.5h-485v0z" />
    <glyph glyph-name="six" unicode="6" horiz-adv-x="820" 
d="M178 0q-34 0 -61.5 16.5t-43.5 44t-16 60.5v478q0 34 16 61.5t43.5 44t61.5 16.5h480v-83h-480q-16 0 -27.5 -11.5t-11.5 -27.5v-144q0 -16 11.5 -28t27.5 -12h485q33 0 60.5 -16t44 -43.5t16.5 -61.5v-173q0 -33 -16.5 -60.5t-44 -44t-60.5 -16.5h-485v0zM178 82h485
q16 0 27.5 11.5t11.5 27.5v173q0 16 -11.5 27.5t-27.5 11.5h-524v-212q0 -16 11.5 -27.5t27.5 -11.5z" />
    <glyph glyph-name="seven" unicode="7" horiz-adv-x="660" 
d="M522 0v0v599q0 16 -11.5 27.5t-27.5 11.5h-480v83h480q33 0 60.5 -16.5t44 -44t16.5 -61.5v-599h-82z" />
    <glyph glyph-name="eight" unicode="8" horiz-adv-x="834" 
d="M178 0q-34 0 -61.5 16.5t-43.5 44t-16 60.5v170q0 20 8 40.5t22 39.5q-14 19 -22 40t-8 41v147q0 34 16 61.5t43.5 44t61.5 16.5h485q28 0 52.5 -14.5t43 -38t25.5 -49.5v-167q0 -40 -30 -81q30 -39 30 -80v-170q0 -33 -16.5 -60.5t-44 -44t-60.5 -16.5h-485v0zM178 82v0
h485q16 0 27.5 11.5t11.5 27.5v170q0 16 -11.5 27.5t-27.5 11.5h-485q-16 0 -27.5 -11.5t-11.5 -27.5v-170q0 -16 11.5 -27.5t27.5 -11.5zM178 401v0h485q16 0 27.5 11.5t11.5 27.5v158q0 16 -11.5 27.5t-27.5 11.5h-485q-16 0 -27.5 -11.5t-11.5 -27.5v-158
q0 -16 11.5 -27.5t27.5 -11.5z" />
    <glyph glyph-name="nine" unicode="9" horiz-adv-x="828" 
d="M173 0q-26 0 -49.5 10.5t-40.5 29t-25 42.5h600q16 0 27.5 11.5t11.5 27.5v145q0 16 -11.5 27.5t-27.5 11.5h-485q-34 0 -61.5 16.5t-44 44t-16.5 60.5v173q0 34 16.5 61.5t44 44t61.5 16.5h485q33 0 60.5 -16.5t44 -44t16.5 -61.5v-478q0 -33 -16.5 -60.5t-44 -44
t-60.5 -16.5h-485v0zM173 387v0h524v212q0 16 -11.5 27.5t-27.5 11.5h-485q-16 0 -27.5 -11.5t-11.5 -27.5v-173q0 -16 11.5 -27.5t27.5 -11.5z" />
    <glyph glyph-name="colon" unicode=":" horiz-adv-x="214" 
d="M54 506v0v82h82v-82h-82zM54 0v0v82h82v-82h-82z" />
    <glyph glyph-name="semicolon" unicode=";" horiz-adv-x="193" 
d="M51 -131v0v213h82v-98q0 -27 -10.5 -50t-29 -40t-42.5 -25zM51 506v0v82h82v-82h-82z" />
    <glyph glyph-name="less" unicode="&#x3c;" horiz-adv-x="473" 
d="M407 16v0l-402 232v97l402 231v-95l-320 -185l320 -185v-95z" />
    <glyph glyph-name="equal" unicode="=" horiz-adv-x="638" 
d="M59 351v0v82h517v-82h-517zM59 151v0v82h517v-82h-517z" />
    <glyph glyph-name="greater" unicode="&#x3e;" horiz-adv-x="475" 
d="M59 14v0v95l320 185l-320 185v95l402 -231v-97z" />
    <glyph glyph-name="question" unicode="?" horiz-adv-x="678" 
d="M153 201v0v42q0 34 16.5 61.5t44 43.5t60.5 16h274q16 0 27.5 11.5t11.5 27.5v194q0 16 -11.5 27.5t-27.5 11.5h-517v84l517 -1q33 0 60.5 -16.5t44 -44t16.5 -61.5v-194q0 -33 -16.5 -60.5t-44 -44t-60.5 -16.5h-274q-16 0 -27.5 -11.5t-11.5 -27.5v-42h-82zM153 0v0v82
h82v-82h-82z" />
    <glyph glyph-name="at" unicode="@" horiz-adv-x="832" 
d="M175 0q-34 0 -61.5 16.5t-43.5 44t-16 60.5v477q0 34 16 61.5t43.5 44t61.5 16.5h485q33 0 60.5 -16.5t44 -44t16.5 -61.5v-406h-411q-34 0 -61.5 16.5t-43.5 44t-16 61.5v84q0 33 16 60.5t43.5 44t61.5 16.5h95q33 0 60.5 -16.5t44 -44t16.5 -60.5v-144h113v344
q0 16 -11.5 27.5t-27.5 11.5h-485q-16 0 -27.5 -11.5t-11.5 -27.5v-477q0 -16 11.5 -27.5t27.5 -11.5h606v-82h-606v0zM349 254h176v165q0 16 -11.5 27.5t-27.5 11.5h-137q-16 0 -27.5 -11.5t-11.5 -27.5v-126q0 -16 11.5 -27.5t27.5 -11.5z" />
    <glyph glyph-name="A" unicode="A" horiz-adv-x="836" 
d="M58 0v600q0 33 16 60.5t43.5 43.5t60.5 16h480q33 0 60.5 -16t43.5 -43.5t16 -60.5v-600h-81v263h-558v-263h-81v0zM139 344h558v256q0 16 -11.5 27.5t-27.5 11.5h-480q-16 0 -27.5 -11.5t-11.5 -27.5v-256v0z" />
    <glyph glyph-name="B" unicode="B" horiz-adv-x="832" 
d="M59 0v720h569q33 0 60.5 -16t43.5 -43.5t16 -60.5v-153q0 -14 -3.5 -27.5t-9.5 -25.5q22 -33 33 -57t11 -49v-168q0 -33 -16 -60.5t-43.5 -43.5t-60.5 -16h-600v0zM179 81h480q16 0 27.5 11.5t11.5 27.5v168q0 16 -11.5 27.5t-27.5 11.5h-480q-16 0 -27.5 -11.5
t-11.5 -27.5v-168q0 -16 11.5 -27.5t27.5 -11.5zM179 408h449q16 0 27 11.5t11 27.5v153q0 16 -11 27.5t-27 11.5h-449q-16 0 -27.5 -11.5t-11.5 -27.5v-153q0 -16 11.5 -27.5t27.5 -11.5z" />
    <glyph glyph-name="C" unicode="C" horiz-adv-x="822" 
d="M176 0q-33 0 -60.5 16t-43.5 43.5t-16 60.5v480q0 33 16 60.5t43.5 43.5t60.5 16h598v-81h-598q-16 0 -27.5 -11.5t-11.5 -27.5v-480q0 -16 11.5 -27.5t27.5 -11.5h598v-81h-598z" />
    <glyph glyph-name="D" unicode="D" horiz-adv-x="834" 
d="M58 0v720h600q33 0 60.5 -16t43.5 -43.5t16 -60.5v-480q0 -33 -16 -60.5t-43.5 -43.5t-60.5 -16h-600zM178 81h480q16 0 27.5 11.5t11.5 27.5v480q0 16 -11.5 27.5t-27.5 11.5h-480q-16 0 -27.5 -11.5t-11.5 -27.5v-480q0 -16 11.5 -27.5t27.5 -11.5z" />
    <glyph glyph-name="E" unicode="E" horiz-adv-x="766" 
d="M58 0v720h657v-81h-576v-238h463v-82h-463v-238h576v-81h-657z" />
    <glyph glyph-name="F" unicode="F" horiz-adv-x="723" 
d="M58 0v720h657v-81h-576v-238h463v-82h-463v-319h-81z" />
    <glyph glyph-name="G" unicode="G" horiz-adv-x="830" 
d="M176 0q-33 0 -60.5 16t-43.5 43.5t-16 60.5v480q0 33 16 60.5t43.5 43.5t60.5 16h480q33 0 60.5 -16t43.5 -43.5t16 -60.5v-29h-81v29q0 16 -11.5 27.5t-27.5 11.5h-480q-16 0 -27.5 -11.5t-11.5 -27.5v-480q0 -16 11.5 -27.5t27.5 -11.5h480q16 0 27.5 11.5t11.5 27.5
v178h-178v82h259v-260q0 -33 -16 -60.5t-43.5 -43.5t-60.5 -16h-480z" />
    <glyph glyph-name="H" unicode="H" horiz-adv-x="851" 
d="M57 0v720h81v-319h575v319h82v-720h-82v319h-575v-319h-81z" />
    <glyph glyph-name="I" unicode="I" horiz-adv-x="214" 
d="M66 0v720h82v-720h-82z" />
    <glyph glyph-name="J" unicode="J" horiz-adv-x="780" 
d="M124 0q-33 0 -60.5 16t-43.5 43.5t-16 60.5v57h81v-57q0 -16 11.5 -27.5t27.5 -11.5h480q16 0 27.5 11.5t11.5 27.5v600h81v-600q0 -33 -16 -60.5t-43.5 -43.5t-60.5 -16h-480z" />
    <glyph glyph-name="K" unicode="K" horiz-adv-x="797" 
d="M57 0v720h82v-319h232l268 319h104v-1l-301 -359l302 -359v-1h-105l-268 319h-232v-319h-82z" />
    <glyph glyph-name="L" unicode="L" horiz-adv-x="779" 
d="M57 0v721h81v-640h639v-81h-720z" />
    <glyph glyph-name="M" unicode="M" horiz-adv-x="928" 
d="M56 0v720h111l299 -356l299 356h111v-720h-81v628l-329 -391l-329 391v-628h-81z" />
    <glyph glyph-name="N" unicode="N" horiz-adv-x="832" 
d="M56 0v720h111l528 -628v628h81v-720h-111l-528 628v-628h-81z" />
    <glyph glyph-name="O" unicode="O" horiz-adv-x="828" 
d="M174 0q-33 0 -60.5 16t-43.5 43.5t-16 60.5v480q0 33 16 60.5t43.5 43.5t60.5 16h480q33 0 60.5 -16t43.5 -43.5t16 -60.5v-480q0 -33 -16 -60.5t-43.5 -43.5t-60.5 -16h-480zM174 81h480q16 0 27.5 11.5t11.5 27.5v480q0 16 -11.5 27.5t-27.5 11.5h-480
q-16 0 -27.5 -11.5t-11.5 -27.5v-480q0 -16 11.5 -27.5t27.5 -11.5z" />
    <glyph glyph-name="P" unicode="P" horiz-adv-x="791" 
d="M56 0v719h600q33 0 60.5 -16.5t43.5 -43.5t16 -60v-211q0 -33 -16 -60t-43.5 -43.5t-60.5 -16.5h-519v-268h-81zM176 350h480q16 0 27.5 11t11.5 27v211q0 16 -11.5 27.5t-27.5 11.5h-480q-16 0 -27.5 -11.5t-11.5 -27.5v-211q0 -16 11.5 -27t27.5 -11z" />
    <glyph glyph-name="Q" unicode="Q" horiz-adv-x="884" 
d="M646 0v36l128 87v-42h94v-81h-222zM174 0q-33 0 -60.5 16t-43.5 43.5t-16 60.5v480q0 33 16 60.5t43.5 43.5t60.5 16h480q33 0 60.5 -16t43.5 -43.5t16 -60.5v-480q0 -33 -16 -60.5t-43.5 -43.5t-60.5 -16h-480zM174 81h480q16 0 27.5 11.5t11.5 27.5v480
q0 16 -11.5 27.5t-27.5 11.5h-480q-16 0 -27.5 -11.5t-11.5 -27.5v-480q0 -16 11.5 -27.5t27.5 -11.5z" />
    <glyph glyph-name="R" unicode="R" horiz-adv-x="825" 
d="M664 0l-235 280h106l236 -279v-1h-107zM56 0v719h600q33 0 60.5 -16.5t43.5 -43.5t16 -60v-211q0 -33 -16 -60t-43.5 -43.5t-60.5 -16.5h-519v-268h-81zM176 350h480q16 0 27.5 11t11.5 27v211q0 16 -11.5 27.5t-27.5 11.5h-480q-16 0 -27.5 -11.5t-11.5 -27.5v-211
q0 -16 11.5 -27t27.5 -11z" />
    <glyph glyph-name="S" unicode="S" horiz-adv-x="822" 
d="M171 0q-33 0 -60.5 16t-43.5 43.5t-16 60.5v28h81v-28q0 -16 11.5 -27.5t27.5 -11.5h480q16 0 27.5 11.5t11.5 27.5v161q0 16 -11.5 27t-27.5 11h-480q-33 0 -60.5 16.5t-43.5 43.5t-16 60v161q0 33 16 60.5t43.5 43.5t60.5 16h480q33 0 60.5 -16t43.5 -43.5t16 -60.5
v-28h-81v28q0 16 -11.5 27.5t-27.5 11.5h-480q-16 0 -27.5 -11.5t-11.5 -27.5v-161q0 -16 11.5 -27t27.5 -11h480q33 0 60.5 -16.5t43.5 -43.5t16 -60v-161q0 -33 -16 -60.5t-43.5 -43.5t-60.5 -16h-480z" />
    <glyph glyph-name="T" unicode="T" horiz-adv-x="759" 
d="M340 0v0v639h-320v81h720v-81h-319v-639h-81z" />
    <glyph glyph-name="U" unicode="U" horiz-adv-x="828" 
d="M174 0q-33 0 -60.5 16t-43.5 43.5t-16 60.5v600h81v-600q0 -16 11.5 -27.5t27.5 -11.5h480q16 0 27.5 11.5t11.5 27.5v600h81v-600q0 -33 -16 -60.5t-43.5 -43.5t-60.5 -16h-480v0z" />
    <glyph glyph-name="V" unicode="V" horiz-adv-x="1003" 
d="M452 0v0l-417 720h95l369 -641l368 641h95l-416 -720h-94z" />
    <glyph glyph-name="W" unicode="W" horiz-adv-x="1179" 
d="M297 0v0l-262 720h86l211 -578l210 578h98l211 -578l209 578h88l-262 -720h-71l-224 615l-224 -615h-70z" />
    <glyph glyph-name="X" unicode="X" horiz-adv-x="812" 
d="M46 0v0v1l302 359l-302 359v1h104l251 -297l250 297h104v-1l-302 -359l303 -359v-1h-105l-250 297l-251 -297h-104z" />
    <glyph glyph-name="Y" unicode="Y" horiz-adv-x="806" 
d="M363 0v0v271l-331 449h93l279 -352l276 352h95l-331 -449v-271h-81z" />
    <glyph glyph-name="Z" unicode="Z" horiz-adv-x="821" 
d="M51 0v0v111l628 528h-628v81h720v-111l-628 -528h628v-81h-720z" />
    <glyph glyph-name="bracketleft" unicode="[" horiz-adv-x="275" 
d="M54 0v0v721h150v-83h-68v-556h68v-82h-150z" />
    <glyph glyph-name="backslash" unicode="\" horiz-adv-x="520" 
d="M508 0v0l-503 621v99h6l500 -613l1 -107h-4z" />
    <glyph glyph-name="bracketright" unicode="]" horiz-adv-x="276" 
d="M51 0v0v82h67v556h-67v83h150v-721h-150z" />
    <glyph glyph-name="underscore" unicode="_" horiz-adv-x="828" 
d="M54 -82v0v82h728v-82h-728z" />
    <glyph glyph-name="grave" unicode="`" horiz-adv-x="315" 
d="M137 640v0l-35 139h81l34 -139h-80z" />
    <glyph glyph-name="a" unicode="a" horiz-adv-x="694" 
d="M173 0q-33 0 -60.5 16.5t-44 44t-16.5 60.5v210h508v128q0 16 -11.5 27.5t-27.5 11.5h-469v82h469q34 0 61.5 -16.5t44 -44t16.5 -60.5v-459h-470zM173 82h387v167h-426v-128q0 -16 11.5 -27.5t27.5 -11.5z" />
    <glyph glyph-name="b" unicode="b" horiz-adv-x="667" 
d="M54 0v0v770h82v-190h388q33 0 60.5 -16.5t44 -44t16.5 -60.5v-338q0 -33 -16.5 -60.5t-44 -44t-60.5 -16.5h-470zM176 82h348q16 0 27.5 11.5t11.5 27.5v338q0 16 -11.5 27.5t-27.5 11.5h-348q-16 0 -28 -11.5t-12 -27.5v-338q0 -16 12 -27.5t28 -11.5z" />
    <glyph glyph-name="c" unicode="c" horiz-adv-x="695" 
d="M172 0q-33 0 -60.5 16.5t-44 44t-16.5 60.5v338q0 33 16.5 60.5t44 44t60.5 16.5h468v-82h-468q-16 0 -27.5 -11.5t-11.5 -27.5v-338q0 -16 11.5 -27.5t27.5 -11.5h470v-82h-470v0z" />
    <glyph glyph-name="d" unicode="d" horiz-adv-x="667" 
d="M145 0q-34 0 -61.5 16.5t-44 44t-16.5 60.5v338q0 33 16.5 60.5t44 44t61.5 16.5h387v190h82v-770h-469v0zM145 82h348q16 0 27.5 11.5t11.5 27.5v338q0 16 -11.5 27.5t-27.5 11.5h-348q-16 0 -27.5 -11.5t-11.5 -27.5v-338q0 -16 11.5 -27.5t27.5 -11.5z" />
    <glyph glyph-name="e" unicode="e" 
d="M172 0q-33 0 -60.5 16.5t-44 44t-16.5 60.5v338q0 33 16.5 60.5t44 44t60.5 16.5h348q34 0 61.5 -16.5t44 -44t16.5 -60.5v-210h-509v-128q0 -16 11.5 -27.5t27.5 -11.5h470v-82h-470v0zM133 331h426v128q0 16 -11.5 27.5t-27.5 11.5h-348q-16 0 -27.5 -11.5t-11.5 -27.5
v-128z" />
    <glyph glyph-name="f" unicode="f" horiz-adv-x="407" 
d="M53 0v0v649q0 34 16 61.5t43.5 43.5t61.5 16h212v-82h-212q-16 0 -27.5 -11.5t-11.5 -27.5v-69h251v-82h-251v-498h-82z" />
    <glyph glyph-name="g" unicode="g" horiz-adv-x="683" 
d="M148 -229v0v83h362q16 0 27.5 11.5t11.5 27.5v107h-387q-33 0 -60.5 16.5t-44 44t-16.5 60.5v338q0 33 16.5 60.5t44 44t60.5 16.5h348q34 0 61.5 -16.5t43.5 -44t16 -60.5v-566q0 -34 -16 -61.5t-43.5 -44t-61.5 -16.5h-362zM162 82h348q16 0 27.5 11.5t11.5 27.5v338
q0 16 -11.5 27.5t-27.5 11.5h-348q-16 0 -27.5 -11.5t-11.5 -27.5v-338q0 -16 11.5 -27.5t27.5 -11.5z" />
    <glyph glyph-name="h" unicode="h" horiz-adv-x="668" 
d="M54 0v0v770h82v-190h388q33 0 60.5 -16.5t44 -44t16.5 -60.5v-459h-82v459q0 16 -11.5 27.5t-27.5 11.5h-348q-16 0 -28 -11.5t-12 -27.5v-459h-82z" />
    <glyph glyph-name="i" unicode="i" horiz-adv-x="208" 
d="M52 0v0v580h82v-580h-82zM52 688v0v82h82v-82h-82z" />
    <glyph glyph-name="j" unicode="j" horiz-adv-x="239" 
d="M-187 -243v0v83h245q16 0 27.5 11.5t11.5 27.5v701h83v-701q0 -34 -16.5 -61.5t-44 -44t-61.5 -16.5h-245zM97 688v0v82h83v-82h-83z" />
    <glyph glyph-name="k" unicode="k" horiz-adv-x="646" 
d="M54 0v0v770h82v-439h160l228 249h108v-1l-263 -289l262 -289v-1h-107l-228 249h-160v-249h-82z" />
    <glyph glyph-name="l" unicode="l" horiz-adv-x="302" 
d="M173 0q-33 0 -60.5 16.5t-44 44t-16.5 60.5v649h82v-649q0 -16 11.5 -27.5t27.5 -11.5h98v-82h-98v0z" />
    <glyph glyph-name="m" unicode="m" horiz-adv-x="978" 
d="M54 0v0v580h766q34 0 61.5 -16.5t43.5 -44t16 -60.5v-459h-81v459q0 16 -12 27.5t-28 11.5h-241q-16 0 -27.5 -11.5t-11.5 -27.5v-459h-83v459q0 16 -11.5 27.5t-27.5 11.5h-242q-16 0 -27.5 -11.5t-11.5 -27.5v-459h-83z" />
    <glyph glyph-name="n" unicode="n" horiz-adv-x="696" 
d="M54 0v0v580h470q33 0 60.5 -16.5t44 -44t16.5 -60.5v-459h-82v459q0 16 -11.5 27.5t-27.5 11.5h-348q-16 0 -28 -11.5t-12 -27.5v-459h-82z" />
    <glyph glyph-name="o" unicode="o" 
d="M172 0q-33 0 -60.5 16.5t-44 44t-16.5 60.5v338q0 33 16.5 60.5t44 44t60.5 16.5h348q34 0 61.5 -16.5t44 -44t16.5 -60.5v-338q0 -33 -16.5 -60.5t-44 -44t-61.5 -16.5h-348v0zM172 82h348q16 0 27.5 11.5t11.5 27.5v338q0 16 -11.5 27.5t-27.5 11.5h-348
q-16 0 -27.5 -11.5t-11.5 -27.5v-338q0 -16 11.5 -27.5t27.5 -11.5z" />
    <glyph glyph-name="p" unicode="p" horiz-adv-x="664" 
d="M54 -230v0v810h470q33 0 60.5 -16.5t44 -44t16.5 -60.5v-338q0 -33 -16.5 -60.5t-44 -44t-60.5 -16.5h-388v-230h-82zM176 82h348q16 0 27.5 11.5t11.5 27.5v338q0 16 -11.5 27.5t-27.5 11.5h-348q-16 0 -28 -11.5t-12 -27.5v-338q0 -16 12 -27.5t28 -11.5z" />
    <glyph glyph-name="q" unicode="q" horiz-adv-x="664" 
d="M529 -230v0v230h-387q-34 0 -61.5 16.5t-44 44t-16.5 60.5v338q0 33 16.5 60.5t44 44t61.5 16.5h469v-810h-82zM142 82h348q16 0 27.5 11.5t11.5 27.5v338q0 16 -11.5 27.5t-27.5 11.5h-348q-16 0 -27.5 -11.5t-11.5 -27.5v-338q0 -16 11.5 -27.5t27.5 -11.5z" />
    <glyph glyph-name="r" unicode="r" horiz-adv-x="512" 
d="M52 0v0v459q0 33 16.5 60.5t44 44t60.5 16.5h326v-82h-326q-16 0 -27.5 -11.5t-11.5 -27.5v-459h-82z" />
    <glyph glyph-name="s" unicode="s" horiz-adv-x="686" 
d="M169 0q-33 0 -60.5 16.5t-44 44t-16.5 60.5v8h82v-8q0 -16 11.5 -27.5t27.5 -11.5h348q16 0 27.5 11.5t11.5 27.5v89q0 16 -11.5 27.5t-27.5 11.5h-348q-33 0 -60.5 16.5t-44 44t-16.5 60.5v89q0 33 16.5 60.5t44 44t60.5 16.5h348q34 0 61.5 -16.5t44 -44t16.5 -60.5v-8
h-83v8q0 16 -11.5 27.5t-27.5 11.5h-348q-16 0 -27.5 -11.5t-11.5 -27.5v-89q0 -16 11.5 -27.5t27.5 -11.5h348q34 0 61.5 -16.5t44 -44t16.5 -60.5v-89q0 -33 -16.5 -60.5t-44 -44t-61.5 -16.5h-348v0z" />
    <glyph glyph-name="t" unicode="t" horiz-adv-x="410" 
d="M174 0q-34 0 -61.5 16.5t-43.5 44t-16 60.5v649h82v-190h251v-82h-251v-377q0 -16 11.5 -27.5t27.5 -11.5h212v-82h-212v0z" />
    <glyph glyph-name="u" unicode="u" horiz-adv-x="695" 
d="M174 0q-33 0 -60.5 16.5t-44 44t-16.5 60.5v459h82v-459q0 -16 11.5 -27.5t27.5 -11.5h348q16 0 28 11.5t12 27.5v459h82v-459q0 -33 -16.5 -60.5t-44 -44t-61.5 -16.5h-348v0z" />
    <glyph glyph-name="v" unicode="v" horiz-adv-x="790" 
d="M341 0v0l-320 580h96l272 -500l272 500h96l-321 -580h-95z" />
    <glyph glyph-name="w" unicode="w" horiz-adv-x="1071" 
d="M263 0v0l-228 580h88l176 -432l187 432h108l199 -431l164 431h89l-219 -580h-71l-216 479l-205 -479h-72z" />
    <glyph glyph-name="x" unicode="x" 
d="M46 0v0v1l242 294l-242 284v1h108l188 -220l189 220h107v-1l-242 -284l243 -294v-1h-108l-189 232l-188 -232h-108z" />
    <glyph glyph-name="y" unicode="y" horiz-adv-x="685" 
d="M149 -230v0v83h362q16 0 27.5 11.5t11.5 27.5v108h-387q-33 0 -60.5 16.5t-44 44t-16.5 60.5v457h82v-457q0 -16 11.5 -27.5t27.5 -11.5h348q16 0 27.5 11.5t11.5 27.5v457h82v-686q0 -34 -16 -61.5t-43.5 -44t-61.5 -16.5h-362z" />
    <glyph glyph-name="z" unicode="z" horiz-adv-x="698" 
d="M54 0v0v112l501 386h-501v82h591v-112l-501 -386h501v-82h-591z" />
    <glyph glyph-name="braceleft" unicode="{" horiz-adv-x="289" 
d="M191 0q-33 0 -60.5 16.5t-44 44t-16.5 60.5v163l-47 29v96l47 25v164q0 34 16.5 61.5t44 44t60.5 16.5h29v-83h-29q-16 0 -27.5 -11.5t-11.5 -27.5v-171l-84 -67l84 -69v-170q0 -16 11.5 -27.5t27.5 -11.5h29v-82h-29v0z" />
    <glyph glyph-name="bar" unicode="|" horiz-adv-x="214" 
d="M54 -115v0v957h82v-957h-82z" />
    <glyph glyph-name="braceright" unicode="}" horiz-adv-x="289" 
d="M51 0v0v82h29q16 0 27.5 11.5t11.5 27.5v169l84 69l-84 66v173q0 16 -11.5 27.5t-27.5 11.5h-29v83h29q33 0 60.5 -16.5t44 -44t16.5 -61.5v-164l46 -27v-95l-46 -29v-162q0 -33 -16.5 -60.5t-44 -44t-60.5 -16.5h-29z" />
    <glyph glyph-name="asciitilde" unicode="~" horiz-adv-x="404" 
d="M297 245q-35 0 -102 36q-67 35 -109 35q-39 0 -62 -8v37q27 9 62 9q40 0 112 -35q72 -36 98 -36q32 0 67 16v-41q-35 -13 -66 -13v0z" />
    <glyph glyph-name="uni00A0" unicode="&#xa0;" horiz-adv-x="272" 
 />
    <glyph glyph-name="exclamdown" unicode="&#xa1;" horiz-adv-x="210" 
d="M53 0v0v517h82v-517h-82zM53 645v0v83h82v-83h-82z" />
    <glyph glyph-name="cent" unicode="&#xa2;" horiz-adv-x="636" 
d="M287 -115v0v115h-133q-34 0 -61.5 16.5t-43.5 44t-16 60.5v348q0 34 16 61.5t43.5 44t61.5 16.5h133v135h82v-135h252v-83h-252v-426h252v-82h-252v-115h-82zM154 82h133v426h-133q-16 0 -27.5 -11.5t-11.5 -27.5v-348q0 -16 11.5 -27.5t27.5 -11.5z" />
    <glyph glyph-name="sterling" unicode="&#xa3;" horiz-adv-x="734" 
d="M39 0v0v82h105v241h-105v82h105v193q0 34 16.5 61.5t44 44t61.5 16.5h303q33 0 60.5 -16.5t44.5 -44t17 -61.5v-15h-83v15q0 16 -11.5 27.5t-27.5 11.5h-303q-16 0 -27.5 -11.5t-11.5 -27.5v-193h352v-82h-352v-241h464v-82h-652z" />
    <glyph glyph-name="dieresis" unicode="&#xa8;" horiz-adv-x="466" 
d="M283 640v0v82h83v-82h-83zM100 640v0v82h83v-82h-83z" />
    <glyph glyph-name="macron" unicode="&#xaf;" horiz-adv-x="500" 
d="M87 638v0v82h324v-82h-324z" />
    <glyph glyph-name="degree" unicode="&#xb0;" horiz-adv-x="439" 
d="M167 401q-34 0 -61.5 16.5t-44 44t-16.5 60.5v84q0 34 16.5 61.5t44 44t61.5 16.5h94q34 0 61.5 -16.5t44 -44t16.5 -61.5v-84q0 -33 -16.5 -60.5t-44 -44t-61.5 -16.5h-94v0zM145 462h138q16 0 27.5 11.5t11.5 27.5v126q0 16 -11.5 27.5t-27.5 11.5h-138
q-16 0 -27.5 -11.5t-11.5 -27.5v-126q0 -16 11.5 -27.5t27.5 -11.5z" />
    <glyph glyph-name="acute" unicode="&#xb4;" horiz-adv-x="213" 
d="M60 640v0l35 139h79l-34 -139h-80z" />
    <glyph glyph-name="paragraph" unicode="&#xb6;" horiz-adv-x="833" 
d="M481 0v0v271h-304q-34 0 -61.5 16.5t-43.5 44t-16 60.5v206q0 33 16 61t43.5 44.5t61.5 16.5h606v-720h-82v271h-138v-271h-82zM177 353h304v284h-304q-16 0 -27.5 -11.5t-11.5 -27.5v-206q0 -16 11.5 -27.5t27.5 -11.5zM563 353v0h138v284h-138v-284z" />
    <glyph glyph-name="cedilla" unicode="&#xb8;" horiz-adv-x="213" 
d="M47 -139l39 155h79l-38 -155h-80z" />
    <glyph glyph-name="questiondown" unicode="&#xbf;" horiz-adv-x="675" 
d="M140 0q-34 0 -61.5 16.5t-43.5 44t-16 60.5v194q0 34 16 61.5t43.5 44t61.5 16.5h273q16 0 27.5 11.5t11.5 27.5v48h82v-48q0 -34 -16 -61.5t-43.5 -44t-61.5 -16.5h-273q-16 0 -27.5 -11.5t-11.5 -27.5v-194q0 -16 11.5 -27.5t27.5 -11.5h515l1 -82h-516v0zM452 645v0
v83h82v-83h-82z" />
    <glyph glyph-name="Agrave" unicode="&#xc0;" horiz-adv-x="836" 
d="M58 0v600q0 33 16 60.5t43.5 43.5t60.5 16h480q33 0 60.5 -16t43.5 -43.5t16 -60.5v-600h-81v263h-558v-263h-81v0zM139 344h558v256q0 16 -11.5 27.5t-27.5 11.5h-480q-16 0 -27.5 -11.5t-11.5 -27.5v-256v0zM385 780v0l-35 139h81l34 -139h-80z" />
    <glyph glyph-name="Aacute" unicode="&#xc1;" horiz-adv-x="836" 
d="M58 0v600q0 33 16 60.5t43.5 43.5t60.5 16h480q33 0 60.5 -16t43.5 -43.5t16 -60.5v-600h-81v263h-558v-263h-81v0zM139 344h558v256q0 16 -11.5 27.5t-27.5 11.5h-480q-16 0 -27.5 -11.5t-11.5 -27.5v-256v0zM371 780v0l35 139h79l-34 -139h-80z" />
    <glyph glyph-name="Acircumflex" unicode="&#xc2;" horiz-adv-x="836" 
d="M58 0v600q0 33 16 60.5t43.5 43.5t60.5 16h480q33 0 60.5 -16t43.5 -43.5t16 -60.5v-600h-81v263h-558v-263h-81v0zM139 344h558v256q0 16 -11.5 27.5t-27.5 11.5h-480q-16 0 -27.5 -11.5t-11.5 -27.5v-256v0zM298 810v0l81 137h79l81 -137h-62l-58 105l-60 -105h-61z
" />
    <glyph glyph-name="Atilde" unicode="&#xc3;" horiz-adv-x="836" 
d="M58 0v600q0 33 16 60.5t43.5 43.5t60.5 16h480q33 0 60.5 -16t43.5 -43.5t16 -60.5v-600h-81v263h-558v-263h-81v0zM139 344h558v256q0 16 -11.5 27.5t-27.5 11.5h-480q-16 0 -27.5 -11.5t-11.5 -27.5v-256v0zM528 819q-53 0 -122 45q-67 45 -120 45h-38v65h58
q42 0 111 -45t118 -45h53v-65h-60v0z" />
    <glyph glyph-name="Adieresis" unicode="&#xc4;" horiz-adv-x="836" 
d="M58 0v600q0 33 16 60.5t43.5 43.5t60.5 16h480q33 0 60.5 -16t43.5 -43.5t16 -60.5v-600h-81v263h-558v-263h-81v0zM139 344h558v256q0 16 -11.5 27.5t-27.5 11.5h-480q-16 0 -27.5 -11.5t-11.5 -27.5v-256v0zM468 780v0v82h83v-82h-83zM285 780v0v82h83v-82h-83z" />
    <glyph glyph-name="Aring" unicode="&#xc5;" horiz-adv-x="836" 
d="M58 0v600q0 33 16 60.5t43.5 43.5t60.5 16h480q33 0 60.5 -16t43.5 -43.5t16 -60.5v-600h-81v263h-558v-263h-81v0zM139 344h558v256q0 16 -11.5 27.5t-27.5 11.5h-480q-16 0 -27.5 -11.5t-11.5 -27.5v-256v0zM390 801q-22 0 -38 15.5t-16 37.5v54q0 22 16 37.5t38 15.5
h56q22 0 38 -15.5t16 -37.5v-54q0 -22 -16 -37.5t-38 -15.5h-56zM385 841h66q4 0 6.5 3t2.5 7v60q0 4 -2.5 7t-6.5 3h-66q-4 0 -6.5 -3t-2.5 -7v-60q0 -4 2.5 -7t6.5 -3z" />
    <glyph glyph-name="AE" unicode="&#xc6;" horiz-adv-x="1375" 
d="M54 0v0v600q0 33 16 60.5t43.5 43.5t60.5 16h1176v-81h-576v-238h463v-82h-463v-238h576v-81h-657v263h-558v-263h-81zM135 344v0h558v256q0 16 -11.5 27.5t-27.5 11.5h-480q-16 0 -27.5 -11.5t-11.5 -27.5v-256z" />
    <glyph glyph-name="Ccedilla" unicode="&#xc7;" horiz-adv-x="822" 
d="M176 0q-33 0 -60.5 16t-43.5 43.5t-16 60.5v480q0 33 16 60.5t43.5 43.5t60.5 16h598v-81h-598q-16 0 -27.5 -11.5t-11.5 -27.5v-480q0 -16 11.5 -27.5t27.5 -11.5h598v-81h-598zM367 -139l39 155h79l-38 -155h-80z" />
    <glyph glyph-name="Egrave" unicode="&#xc8;" horiz-adv-x="766" 
d="M58 0v720h657v-81h-576v-238h463v-82h-463v-238h576v-81h-657zM365 780v0l-35 139h81l34 -139h-80z" />
    <glyph glyph-name="Eacute" unicode="&#xc9;" horiz-adv-x="766" 
d="M58 0v720h657v-81h-576v-238h463v-82h-463v-238h576v-81h-657zM351 780v0l35 139h79l-34 -139h-80z" />
    <glyph glyph-name="Ecircumflex" unicode="&#xca;" horiz-adv-x="766" 
d="M58 0v720h657v-81h-576v-238h463v-82h-463v-238h576v-81h-657zM278 810v0l81 137h79l81 -137h-62l-58 105l-60 -105h-61z" />
    <glyph glyph-name="Edieresis" unicode="&#xcb;" horiz-adv-x="766" 
d="M58 0v720h657v-81h-576v-238h463v-82h-463v-238h576v-81h-657zM448 780v0v82h83v-82h-83zM265 780v0v82h83v-82h-83z" />
    <glyph glyph-name="Igrave" unicode="&#xcc;" horiz-adv-x="214" 
d="M66 0v720h82v-720h-82zM76 780v0l-35 139h81l34 -139h-80z" />
    <glyph glyph-name="Iacute" unicode="&#xcd;" horiz-adv-x="214" 
d="M66 0v720h82v-720h-82zM62 780v0l35 139h79l-34 -139h-80z" />
    <glyph glyph-name="Icircumflex" unicode="&#xce;" horiz-adv-x="214" 
d="M66 0v720h82v-720h-82zM-11 810v0l81 137h79l81 -137h-62l-58 105l-60 -105h-61z" />
    <glyph glyph-name="Idieresis" unicode="&#xcf;" horiz-adv-x="214" 
d="M66 0v720h82v-720h-82zM159 780v0v82h83v-82h-83zM-24 780v0v82h83v-82h-83z" />
    <glyph glyph-name="Ntilde" unicode="&#xd1;" horiz-adv-x="832" 
d="M56 0v720h111l528 -628v628h81v-720h-111l-528 628v-628h-81zM513 819q-53 0 -122 45q-67 45 -120 45h-38v65h58q42 0 111 -45t118 -45h53v-65h-60v0z" />
    <glyph glyph-name="Ograve" unicode="&#xd2;" horiz-adv-x="828" 
d="M174 0q-33 0 -60.5 16t-43.5 43.5t-16 60.5v480q0 33 16 60.5t43.5 43.5t60.5 16h480q33 0 60.5 -16t43.5 -43.5t16 -60.5v-480q0 -33 -16 -60.5t-43.5 -43.5t-60.5 -16h-480zM174 81h480q16 0 27.5 11.5t11.5 27.5v480q0 16 -11.5 27.5t-27.5 11.5h-480
q-16 0 -27.5 -11.5t-11.5 -27.5v-480q0 -16 11.5 -27.5t27.5 -11.5zM381 780v0l-35 139h81l34 -139h-80z" />
    <glyph glyph-name="Oacute" unicode="&#xd3;" horiz-adv-x="828" 
d="M174 0q-33 0 -60.5 16t-43.5 43.5t-16 60.5v480q0 33 16 60.5t43.5 43.5t60.5 16h480q33 0 60.5 -16t43.5 -43.5t16 -60.5v-480q0 -33 -16 -60.5t-43.5 -43.5t-60.5 -16h-480zM174 81h480q16 0 27.5 11.5t11.5 27.5v480q0 16 -11.5 27.5t-27.5 11.5h-480
q-16 0 -27.5 -11.5t-11.5 -27.5v-480q0 -16 11.5 -27.5t27.5 -11.5zM367 780v0l35 139h79l-34 -139h-80z" />
    <glyph glyph-name="Ocircumflex" unicode="&#xd4;" horiz-adv-x="828" 
d="M174 0q-33 0 -60.5 16t-43.5 43.5t-16 60.5v480q0 33 16 60.5t43.5 43.5t60.5 16h480q33 0 60.5 -16t43.5 -43.5t16 -60.5v-480q0 -33 -16 -60.5t-43.5 -43.5t-60.5 -16h-480zM174 81h480q16 0 27.5 11.5t11.5 27.5v480q0 16 -11.5 27.5t-27.5 11.5h-480
q-16 0 -27.5 -11.5t-11.5 -27.5v-480q0 -16 11.5 -27.5t27.5 -11.5zM294 810v0l81 137h79l81 -137h-62l-58 105l-60 -105h-61z" />
    <glyph glyph-name="Otilde" unicode="&#xd5;" horiz-adv-x="828" 
d="M174 0q-33 0 -60.5 16t-43.5 43.5t-16 60.5v480q0 33 16 60.5t43.5 43.5t60.5 16h480q33 0 60.5 -16t43.5 -43.5t16 -60.5v-480q0 -33 -16 -60.5t-43.5 -43.5t-60.5 -16h-480zM174 81h480q16 0 27.5 11.5t11.5 27.5v480q0 16 -11.5 27.5t-27.5 11.5h-480
q-16 0 -27.5 -11.5t-11.5 -27.5v-480q0 -16 11.5 -27.5t27.5 -11.5zM524 819q-53 0 -122 45q-67 45 -120 45h-38v65h58q42 0 111 -45t118 -45h53v-65h-60v0z" />
    <glyph glyph-name="Odieresis" unicode="&#xd6;" horiz-adv-x="828" 
d="M174 0q-33 0 -60.5 16t-43.5 43.5t-16 60.5v480q0 33 16 60.5t43.5 43.5t60.5 16h480q33 0 60.5 -16t43.5 -43.5t16 -60.5v-480q0 -33 -16 -60.5t-43.5 -43.5t-60.5 -16h-480zM174 81h480q16 0 27.5 11.5t11.5 27.5v480q0 16 -11.5 27.5t-27.5 11.5h-480
q-16 0 -27.5 -11.5t-11.5 -27.5v-480q0 -16 11.5 -27.5t27.5 -11.5zM464 780v0v82h83v-82h-83zM281 780v0v82h83v-82h-83z" />
    <glyph glyph-name="multiply" unicode="&#xd7;" horiz-adv-x="546" 
d="M54 95v0l6 8l152 198l-156 201l-3 4h108l105 -144l106 144h106l-4 -5l-154 -200l152 -199l6 -7h-106l-106 144l-105 -144h-107z" />
    <glyph glyph-name="Ugrave" unicode="&#xd9;" horiz-adv-x="828" 
d="M174 0q-33 0 -60.5 16t-43.5 43.5t-16 60.5v600h81v-600q0 -16 11.5 -27.5t27.5 -11.5h480q16 0 27.5 11.5t11.5 27.5v600h81v-600q0 -33 -16 -60.5t-43.5 -43.5t-60.5 -16h-480v0zM381 780v0l-35 139h81l34 -139h-80z" />
    <glyph glyph-name="Uacute" unicode="&#xda;" horiz-adv-x="828" 
d="M174 0q-33 0 -60.5 16t-43.5 43.5t-16 60.5v600h81v-600q0 -16 11.5 -27.5t27.5 -11.5h480q16 0 27.5 11.5t11.5 27.5v600h81v-600q0 -33 -16 -60.5t-43.5 -43.5t-60.5 -16h-480v0zM367 780v0l35 139h79l-34 -139h-80z" />
    <glyph glyph-name="Ucircumflex" unicode="&#xdb;" horiz-adv-x="828" 
d="M174 0q-33 0 -60.5 16t-43.5 43.5t-16 60.5v600h81v-600q0 -16 11.5 -27.5t27.5 -11.5h480q16 0 27.5 11.5t11.5 27.5v600h81v-600q0 -33 -16 -60.5t-43.5 -43.5t-60.5 -16h-480v0zM294 810v0l81 137h79l81 -137h-62l-58 105l-60 -105h-61z" />
    <glyph glyph-name="Udieresis" unicode="&#xdc;" horiz-adv-x="828" 
d="M174 0q-33 0 -60.5 16t-43.5 43.5t-16 60.5v600h81v-600q0 -16 11.5 -27.5t27.5 -11.5h480q16 0 27.5 11.5t11.5 27.5v600h81v-600q0 -33 -16 -60.5t-43.5 -43.5t-60.5 -16h-480v0zM464 780v0v82h83v-82h-83zM281 780v0v82h83v-82h-83z" />
    <glyph glyph-name="Yacute" unicode="&#xdd;" horiz-adv-x="806" 
d="M363 0v0v271l-331 449h93l279 -352l276 352h95l-331 -449v-271h-81zM355 780v0l35 139h79l-34 -139h-80z" />
    <glyph glyph-name="germandbls" unicode="&#xdf;" horiz-adv-x="833" 
d="M57 0v0v598q0 34 16 61.5t43.5 44t61.5 16.5h485q28 0 53 -14.5t43 -38t25 -49.5v-163q0 -40 -30 -81q30 -39 30 -80v-173q0 -33 -16.5 -60.5t-44 -44t-60.5 -16.5h-379v82h379q16 0 27.5 11.5t11.5 27.5v173q0 16 -11.5 27.5t-27.5 11.5h-379v71h379q16 0 27.5 11.5
t11.5 27.5v154q0 16 -11.5 27.5t-27.5 11.5h-485q-16 0 -27.5 -11.5t-11.5 -27.5v-597h-82z" />
    <glyph glyph-name="agrave" unicode="&#xe0;" horiz-adv-x="694" 
d="M173 0q-33 0 -60.5 16.5t-44 44t-16.5 60.5v210h508v128q0 16 -11.5 27.5t-27.5 11.5h-469v82h469q34 0 61.5 -16.5t44 -44t16.5 -60.5v-459h-470zM173 82h387v167h-426v-128q0 -16 11.5 -27.5t27.5 -11.5zM334 640v0l-35 139h81l34 -139h-80z" />
    <glyph glyph-name="aacute" unicode="&#xe1;" horiz-adv-x="694" 
d="M173 0q-33 0 -60.5 16.5t-44 44t-16.5 60.5v210h508v128q0 16 -11.5 27.5t-27.5 11.5h-469v82h469q34 0 61.5 -16.5t44 -44t16.5 -60.5v-459h-470zM173 82h387v167h-426v-128q0 -16 11.5 -27.5t27.5 -11.5zM320 640v0l35 139h79l-34 -139h-80z" />
    <glyph glyph-name="acircumflex" unicode="&#xe2;" horiz-adv-x="694" 
d="M173 0q-33 0 -60.5 16.5t-44 44t-16.5 60.5v210h508v128q0 16 -11.5 27.5t-27.5 11.5h-469v82h469q34 0 61.5 -16.5t44 -44t16.5 -60.5v-459h-470zM173 82h387v167h-426v-128q0 -16 11.5 -27.5t27.5 -11.5zM247 670v0l81 137h79l81 -137h-62l-58 105l-60 -105h-61z" />
    <glyph glyph-name="atilde" unicode="&#xe3;" horiz-adv-x="694" 
d="M173 0q-33 0 -60.5 16.5t-44 44t-16.5 60.5v210h508v128q0 16 -11.5 27.5t-27.5 11.5h-469v82h469q34 0 61.5 -16.5t44 -44t16.5 -60.5v-459h-470zM173 82h387v167h-426v-128q0 -16 11.5 -27.5t27.5 -11.5zM477 679q-53 0 -122 45q-67 45 -120 45h-38v65h58q42 0 111 -45
t118 -45h53v-65h-60v0z" />
    <glyph glyph-name="adieresis" unicode="&#xe4;" horiz-adv-x="694" 
d="M173 0q-33 0 -60.5 16.5t-44 44t-16.5 60.5v210h508v128q0 16 -11.5 27.5t-27.5 11.5h-469v82h469q34 0 61.5 -16.5t44 -44t16.5 -60.5v-459h-470zM173 82h387v167h-426v-128q0 -16 11.5 -27.5t27.5 -11.5zM417 640v0v82h83v-82h-83zM234 640v0v82h83v-82h-83z" />
    <glyph glyph-name="aring" unicode="&#xe5;" horiz-adv-x="694" 
d="M173 0q-33 0 -60.5 16.5t-44 44t-16.5 60.5v210h508v128q0 16 -11.5 27.5t-27.5 11.5h-469v82h469q34 0 61.5 -16.5t44 -44t16.5 -60.5v-459h-470zM173 82h387v167h-426v-128q0 -16 11.5 -27.5t27.5 -11.5zM339 661q-22 0 -38 15.5t-16 37.5v54q0 22 16 37.5t38 15.5h56
q22 0 38 -15.5t16 -37.5v-54q0 -22 -16 -37.5t-38 -15.5h-56zM334 701h66q4 0 6.5 3t2.5 7v60q0 4 -2.5 7t-6.5 3h-66q-4 0 -6.5 -3t-2.5 -7v-60q0 -4 2.5 -7t6.5 -3z" />
    <glyph glyph-name="ae" unicode="&#xe6;" horiz-adv-x="1178" 
d="M174 0q-34 0 -61.5 16.5t-43.5 44t-16 60.5v210h508v128q0 16 -11.5 27.5t-27.5 11.5h-469v82h977q34 0 61.5 -16.5t43.5 -44t16 -60.5v-210h-508v-132q1 -15 12.5 -25t26.5 -10h469v-82h-977zM174 82h387v167h-426v-128q0 -16 11.5 -27.5t27.5 -11.5zM643 331h426v128
q0 16 -11.5 27.5t-27.5 11.5h-348q-16 0 -27.5 -11.5t-11.5 -27.5v-128z" />
    <glyph glyph-name="ccedilla" unicode="&#xe7;" horiz-adv-x="695" 
d="M172 0q-33 0 -60.5 16.5t-44 44t-16.5 60.5v338q0 33 16.5 60.5t44 44t60.5 16.5h468v-82h-468q-16 0 -27.5 -11.5t-11.5 -27.5v-338q0 -16 11.5 -27.5t27.5 -11.5h470v-82h-470v0zM290 -139l39 155h79l-38 -155h-80z" />
    <glyph glyph-name="egrave" unicode="&#xe8;" 
d="M172 0q-33 0 -60.5 16.5t-44 44t-16.5 60.5v338q0 33 16.5 60.5t44 44t60.5 16.5h348q34 0 61.5 -16.5t44 -44t16.5 -60.5v-210h-509v-128q0 -16 11.5 -27.5t27.5 -11.5h470v-82h-470v0zM133 331h426v128q0 16 -11.5 27.5t-27.5 11.5h-348q-16 0 -27.5 -11.5t-11.5 -27.5
v-128zM314 640v0l-35 139h81l34 -139h-80z" />
    <glyph glyph-name="eacute" unicode="&#xe9;" 
d="M172 0q-33 0 -60.5 16.5t-44 44t-16.5 60.5v338q0 33 16.5 60.5t44 44t60.5 16.5h348q34 0 61.5 -16.5t44 -44t16.5 -60.5v-210h-509v-128q0 -16 11.5 -27.5t27.5 -11.5h470v-82h-470v0zM133 331h426v128q0 16 -11.5 27.5t-27.5 11.5h-348q-16 0 -27.5 -11.5t-11.5 -27.5
v-128zM300 640v0l35 139h79l-34 -139h-80z" />
    <glyph glyph-name="ecircumflex" unicode="&#xea;" 
d="M172 0q-33 0 -60.5 16.5t-44 44t-16.5 60.5v338q0 33 16.5 60.5t44 44t60.5 16.5h348q34 0 61.5 -16.5t44 -44t16.5 -60.5v-210h-509v-128q0 -16 11.5 -27.5t27.5 -11.5h470v-82h-470v0zM133 331h426v128q0 16 -11.5 27.5t-27.5 11.5h-348q-16 0 -27.5 -11.5t-11.5 -27.5
v-128zM227 670v0l81 137h79l81 -137h-62l-58 105l-60 -105h-61z" />
    <glyph glyph-name="edieresis" unicode="&#xeb;" 
d="M172 0q-33 0 -60.5 16.5t-44 44t-16.5 60.5v338q0 33 16.5 60.5t44 44t60.5 16.5h348q34 0 61.5 -16.5t44 -44t16.5 -60.5v-210h-509v-128q0 -16 11.5 -27.5t27.5 -11.5h470v-82h-470v0zM133 331h426v128q0 16 -11.5 27.5t-27.5 11.5h-348q-16 0 -27.5 -11.5t-11.5 -27.5
v-128zM397 640v0v82h83v-82h-83zM214 640v0v82h83v-82h-83z" />
    <glyph glyph-name="igrave" unicode="&#xec;" horiz-adv-x="214" 
d="M66 0v0v580h82v-580h-82zM74 640v0l-35 139h81l34 -139h-80z" />
    <glyph glyph-name="iacute" unicode="&#xed;" horiz-adv-x="214" 
d="M66 0v0v580h82v-580h-82zM60 640v0l35 139h79l-34 -139h-80z" />
    <glyph glyph-name="icircumflex" unicode="&#xee;" horiz-adv-x="214" 
d="M66 0v0v580h82v-580h-82zM-13 670v0l81 137h79l81 -137h-62l-58 105l-60 -105h-61z" />
    <glyph glyph-name="idieresis" unicode="&#xef;" horiz-adv-x="214" 
d="M66 0v0v580h82v-580h-82zM157 640v0v82h83v-82h-83zM-26 640v0v82h83v-82h-83z" />
    <glyph glyph-name="ntilde" unicode="&#xf1;" horiz-adv-x="696" 
d="M54 0v0v580h470q33 0 60.5 -16.5t44 -44t16.5 -60.5v-459h-82v459q0 16 -11.5 27.5t-27.5 11.5h-348q-16 0 -28 -11.5t-12 -27.5v-459h-82zM456 679q-53 0 -122 45q-67 45 -120 45h-38v65h58q42 0 111 -45t118 -45h53v-65h-60v0z" />
    <glyph glyph-name="ograve" unicode="&#xf2;" 
d="M172 0q-33 0 -60.5 16.5t-44 44t-16.5 60.5v338q0 33 16.5 60.5t44 44t60.5 16.5h348q34 0 61.5 -16.5t44 -44t16.5 -60.5v-338q0 -33 -16.5 -60.5t-44 -44t-61.5 -16.5h-348v0zM172 82h348q16 0 27.5 11.5t11.5 27.5v338q0 16 -11.5 27.5t-27.5 11.5h-348
q-16 0 -27.5 -11.5t-11.5 -27.5v-338q0 -16 11.5 -27.5t27.5 -11.5zM312 638v0l-35 139h81l34 -139h-80z" />
    <glyph glyph-name="oacute" unicode="&#xf3;" 
d="M172 0q-33 0 -60.5 16.5t-44 44t-16.5 60.5v338q0 33 16.5 60.5t44 44t60.5 16.5h348q34 0 61.5 -16.5t44 -44t16.5 -60.5v-338q0 -33 -16.5 -60.5t-44 -44t-61.5 -16.5h-348v0zM172 82h348q16 0 27.5 11.5t11.5 27.5v338q0 16 -11.5 27.5t-27.5 11.5h-348
q-16 0 -27.5 -11.5t-11.5 -27.5v-338q0 -16 11.5 -27.5t27.5 -11.5zM298 638v0l35 139h79l-34 -139h-80z" />
    <glyph glyph-name="ocircumflex" unicode="&#xf4;" 
d="M172 0q-33 0 -60.5 16.5t-44 44t-16.5 60.5v338q0 33 16.5 60.5t44 44t60.5 16.5h348q34 0 61.5 -16.5t44 -44t16.5 -60.5v-338q0 -33 -16.5 -60.5t-44 -44t-61.5 -16.5h-348v0zM172 82h348q16 0 27.5 11.5t11.5 27.5v338q0 16 -11.5 27.5t-27.5 11.5h-348
q-16 0 -27.5 -11.5t-11.5 -27.5v-338q0 -16 11.5 -27.5t27.5 -11.5zM225 668v0l81 137h79l81 -137h-62l-58 105l-60 -105h-61z" />
    <glyph glyph-name="otilde" unicode="&#xf5;" 
d="M172 0q-33 0 -60.5 16.5t-44 44t-16.5 60.5v338q0 33 16.5 60.5t44 44t60.5 16.5h348q34 0 61.5 -16.5t44 -44t16.5 -60.5v-338q0 -33 -16.5 -60.5t-44 -44t-61.5 -16.5h-348v0zM172 82h348q16 0 27.5 11.5t11.5 27.5v338q0 16 -11.5 27.5t-27.5 11.5h-348
q-16 0 -27.5 -11.5t-11.5 -27.5v-338q0 -16 11.5 -27.5t27.5 -11.5zM455 677q-53 0 -122 45q-67 45 -120 45h-38v65h58q42 0 111 -45t118 -45h53v-65h-60v0z" />
    <glyph glyph-name="odieresis" unicode="&#xf6;" 
d="M172 0q-33 0 -60.5 16.5t-44 44t-16.5 60.5v338q0 33 16.5 60.5t44 44t60.5 16.5h348q34 0 61.5 -16.5t44 -44t16.5 -60.5v-338q0 -33 -16.5 -60.5t-44 -44t-61.5 -16.5h-348v0zM172 82h348q16 0 27.5 11.5t11.5 27.5v338q0 16 -11.5 27.5t-27.5 11.5h-348
q-16 0 -27.5 -11.5t-11.5 -27.5v-338q0 -16 11.5 -27.5t27.5 -11.5zM395 638v0v82h83v-82h-83zM212 638v0v82h83v-82h-83z" />
    <glyph glyph-name="divide" unicode="&#xf7;" horiz-adv-x="508" 
d="M18 255v0v82h474v-82h-474zM215 1v0v82h82v-82h-82zM215 497v0v82h82v-82h-82z" />
    <glyph glyph-name="ugrave" unicode="&#xf9;" horiz-adv-x="695" 
d="M174 0q-33 0 -60.5 16.5t-44 44t-16.5 60.5v459h82v-459q0 -16 11.5 -27.5t27.5 -11.5h348q16 0 28 11.5t12 27.5v459h82v-459q0 -33 -16.5 -60.5t-44 -44t-61.5 -16.5h-348v0zM316 640v0l-35 139h81l34 -139h-80z" />
    <glyph glyph-name="uacute" unicode="&#xfa;" horiz-adv-x="695" 
d="M174 0q-33 0 -60.5 16.5t-44 44t-16.5 60.5v459h82v-459q0 -16 11.5 -27.5t27.5 -11.5h348q16 0 28 11.5t12 27.5v459h82v-459q0 -33 -16.5 -60.5t-44 -44t-61.5 -16.5h-348v0zM302 640v0l35 139h79l-34 -139h-80z" />
    <glyph glyph-name="ucircumflex" unicode="&#xfb;" horiz-adv-x="695" 
d="M174 0q-33 0 -60.5 16.5t-44 44t-16.5 60.5v459h82v-459q0 -16 11.5 -27.5t27.5 -11.5h348q16 0 28 11.5t12 27.5v459h82v-459q0 -33 -16.5 -60.5t-44 -44t-61.5 -16.5h-348v0zM229 670v0l81 137h79l81 -137h-62l-58 105l-60 -105h-61z" />
    <glyph glyph-name="udieresis" unicode="&#xfc;" horiz-adv-x="695" 
d="M174 0q-33 0 -60.5 16.5t-44 44t-16.5 60.5v459h82v-459q0 -16 11.5 -27.5t27.5 -11.5h348q16 0 28 11.5t12 27.5v459h82v-459q0 -33 -16.5 -60.5t-44 -44t-61.5 -16.5h-348v0zM399 640v0v82h83v-82h-83zM216 640v0v82h83v-82h-83z" />
    <glyph glyph-name="yacute" unicode="&#xfd;" horiz-adv-x="685" 
d="M149 -230v0v83h362q16 0 27.5 11.5t11.5 27.5v108h-387q-33 0 -60.5 16.5t-44 44t-16.5 60.5v457h82v-457q0 -16 11.5 -27.5t27.5 -11.5h348q16 0 27.5 11.5t11.5 27.5v457h82v-686q0 -34 -16 -61.5t-43.5 -44t-61.5 -16.5h-362zM290 640v0l35 139h79l-34 -139h-80z" />
    <glyph glyph-name="ydieresis" unicode="&#xff;" horiz-adv-x="685" 
d="M149 -230v0v83h362q16 0 27.5 11.5t11.5 27.5v108h-387q-33 0 -60.5 16.5t-44 44t-16.5 60.5v457h82v-457q0 -16 11.5 -27.5t27.5 -11.5h348q16 0 27.5 11.5t11.5 27.5v457h82v-686q0 -34 -16 -61.5t-43.5 -44t-61.5 -16.5h-362zM387 640v0v82h83v-82h-83zM204 640v0v82
h83v-82h-83z" />
    <glyph glyph-name="dotlessi" unicode="&#x131;" horiz-adv-x="214" 
d="M66 0v0v580h82v-580h-82z" />
    <glyph glyph-name="OE" unicode="&#x152;" horiz-adv-x="1374" 
d="M173 0q-33 0 -60.5 16t-43.5 43.5t-16 60.5v480q0 33 16 60.5t43.5 43.5t60.5 16h1176v-81h-576v-238h463v-82h-463v-238h576v-81h-1176zM173 81h480q16 0 27.5 11.5t11.5 27.5v480q0 16 -11.5 27.5t-27.5 11.5h-480q-16 0 -27.5 -11.5t-11.5 -27.5v-480
q0 -16 11.5 -27.5t27.5 -11.5z" />
    <glyph glyph-name="oe" unicode="&#x153;" horiz-adv-x="1177" 
d="M173 0q-34 0 -61.5 16.5t-43.5 44t-16 60.5v338q0 33 16 60.5t43.5 44t61.5 16.5h856q34 0 61.5 -16.5t43.5 -44t16 -60.5v-210h-508v-128q0 -16 11.5 -27.5t27.5 -11.5h469v-82h-977v0zM173 82v0h348q16 0 27.5 11.5t11.5 27.5v338q0 16 -11.5 27.5t-27.5 11.5h-348
q-16 0 -27.5 -11.5t-11.5 -27.5v-338q0 -16 11.5 -27.5t27.5 -11.5zM642 331v0h426v128q0 16 -11.5 27.5t-27.5 11.5h-348q-16 0 -27.5 -11.5t-11.5 -27.5v-128z" />
    <glyph glyph-name="Scaron" unicode="&#x160;" horiz-adv-x="822" 
d="M171 0q-33 0 -60.5 16t-43.5 43.5t-16 60.5v28h81v-28q0 -16 11.5 -27.5t27.5 -11.5h480q16 0 27.5 11.5t11.5 27.5v161q0 16 -11.5 27t-27.5 11h-480q-33 0 -60.5 16.5t-43.5 43.5t-16 60v161q0 33 16 60.5t43.5 43.5t60.5 16h480q33 0 60.5 -16t43.5 -43.5t16 -60.5
v-28h-81v28q0 16 -11.5 27.5t-27.5 11.5h-480q-16 0 -27.5 -11.5t-11.5 -27.5v-161q0 -16 11.5 -27t27.5 -11h480q33 0 60.5 -16.5t43.5 -43.5t16 -60v-161q0 -33 -16 -60.5t-43.5 -43.5t-60.5 -16h-480zM385 780v0l-72 117h42l60 -85l58 85h41l-70 -117h-59z" />
    <glyph glyph-name="scaron" unicode="&#x161;" horiz-adv-x="686" 
d="M169 0q-33 0 -60.5 16.5t-44 44t-16.5 60.5v8h82v-8q0 -16 11.5 -27.5t27.5 -11.5h348q16 0 27.5 11.5t11.5 27.5v89q0 16 -11.5 27.5t-27.5 11.5h-348q-33 0 -60.5 16.5t-44 44t-16.5 60.5v89q0 33 16.5 60.5t44 44t60.5 16.5h348q34 0 61.5 -16.5t44 -44t16.5 -60.5v-8
h-83v8q0 16 -11.5 27.5t-27.5 11.5h-348q-16 0 -27.5 -11.5t-11.5 -27.5v-89q0 -16 11.5 -27.5t27.5 -11.5h348q34 0 61.5 -16.5t44 -44t16.5 -60.5v-89q0 -33 -16.5 -60.5t-44 -44t-61.5 -16.5h-348v0zM312 639v0l-72 117h42l60 -85l58 85h41l-70 -117h-59z" />
    <glyph glyph-name="Ydieresis" unicode="&#x178;" horiz-adv-x="806" 
d="M363 0v0v271l-331 449h93l279 -352l276 352h95l-331 -449v-271h-81zM452 780v0v82h83v-82h-83zM269 780v0v82h83v-82h-83z" />
    <glyph glyph-name="Zcaron" unicode="&#x17d;" horiz-adv-x="821" 
d="M51 0v0v111l628 528h-628v81h720v-111l-628 -528h628v-81h-720zM382 780v0l-72 117h42l60 -85l58 85h41l-70 -117h-59z" />
    <glyph glyph-name="zcaron" unicode="&#x17e;" horiz-adv-x="698" 
d="M54 0v0v112l501 386h-501v82h591v-112l-501 -386h501v-82h-591zM313 640v0l-72 117h42l60 -85l58 85h41l-70 -117h-59z" />
    <glyph glyph-name="circumflex" unicode="&#x2c6;" horiz-adv-x="441" 
d="M100 670v0l81 137h79l81 -137h-62l-58 105l-60 -105h-61z" />
    <glyph glyph-name="caron" unicode="&#x2c7;" horiz-adv-x="297" 
d="M120 640v0l-72 117h42l60 -85l58 85h41l-70 -117h-59z" />
    <glyph glyph-name="breve" unicode="&#x2d8;" horiz-adv-x="287" 
d="M105 872q-30 0 -47 20t-18 47h32q0 -17 5.5 -25.5t15.5 -8.5h87q7 0 10.5 8.5t3.5 25.5h31q-1 -27 -17.5 -47t-47.5 -20h-55v0z" />
    <glyph glyph-name="dotaccent" unicode="&#x2d9;" horiz-adv-x="232" 
d="M74 640v82h83v-82h-83z" />
    <glyph glyph-name="ring" unicode="&#x2da;" horiz-adv-x="233" 
d="M88 769q-22 0 -38 15.5t-16 37.5v54q0 22 16 37.5t38 15.5h56q22 0 38 -15.5t16 -37.5v-54q0 -22 -16 -37.5t-38 -15.5h-56zM83 809h66q4 0 6.5 3t2.5 7v60q0 4 -2.5 7t-6.5 3h-66q-4 0 -6.5 -3t-2.5 -7v-60q0 -4 2.5 -7t6.5 -3z" />
    <glyph glyph-name="ogonek" unicode="&#x2db;" horiz-adv-x="500" 
d="M189 -250v0v233h122v-233h-122z" />
    <glyph glyph-name="tilde" unicode="&#x2dc;" horiz-adv-x="403" 
d="M312 679q-53 0 -122 45q-67 45 -120 45h-38v65h58q42 0 111 -45t118 -45h53v-65h-60v0z" />
    <glyph glyph-name="gravecomb" unicode="&#x300;" horiz-adv-x="0" 
d="M-33 640v0l-35 139h81l34 -139h-80z" />
    <glyph glyph-name="acutecomb" unicode="&#x301;" horiz-adv-x="0" 
d="M-47 640v0l35 139h79l-34 -139h-80z" />
    <glyph glyph-name="uni0302" unicode="&#x302;" horiz-adv-x="0" 
d="M-119 670v0l81 137h79l81 -137h-62l-58 105l-60 -105h-61z" />
    <glyph glyph-name="tildecomb" unicode="&#x303;" horiz-adv-x="0" 
d="M110 679q-53 0 -122 45q-67 45 -120 45h-38v65h58q42 0 111 -45t118 -45h53v-65h-60v0z" />
    <glyph glyph-name="uni0307" unicode="&#x307;" horiz-adv-x="0" 
d="M-42 640v82h83v-82h-83z" />
    <glyph glyph-name="uni0308" unicode="&#x308;" horiz-adv-x="0" 
d="M50 640v0v82h83v-82h-83zM-133 640v0v82h83v-82h-83z" />
    <glyph glyph-name="uni030A" unicode="&#x30a;" horiz-adv-x="0" 
d="M-28 661q-22 0 -38 15.5t-16 37.5v54q0 22 16 37.5t38 15.5h56q22 0 38 -15.5t16 -37.5v-54q0 -22 -16 -37.5t-38 -15.5h-56zM-33 701h66q4 0 6.5 3t2.5 7v60q0 4 -2.5 7t-6.5 3h-66q-4 0 -6.5 -3t-2.5 -7v-60q0 -4 2.5 -7t6.5 -3z" />
    <glyph glyph-name="uni030C" unicode="&#x30c;" horiz-adv-x="0" 
d="M-29 640v0l-72 117h42l60 -85l58 85h41l-70 -117h-59z" />
    <glyph glyph-name="uni0327" unicode="&#x327;" horiz-adv-x="0" 
d="M367 -139l39 155h79l-38 -155h-80z" />
    <glyph glyph-name="endash" unicode="&#x2013;" horiz-adv-x="708" 
d="M54 254v0v82h601v-82h-601z" />
    <glyph glyph-name="emdash" unicode="&#x2014;" horiz-adv-x="822" 
d="M54 254v0v82h721v-82h-721z" />
    <glyph glyph-name="quoteleft" unicode="&#x2018;" horiz-adv-x="168" 
d="M33 503v0v98q0 27 10.5 50.5t29.5 40.5t43 24v-213h-83z" />
    <glyph glyph-name="quoteright" unicode="&#x2019;" horiz-adv-x="166" 
d="M54 508v0v213h82v-98q0 -27 -10.5 -50.5t-29 -40.5t-42.5 -24z" />
    <glyph glyph-name="quotedblleft" unicode="&#x201c;" horiz-adv-x="363" 
d="M47 502v0v98q0 27 10.5 50.5t29.5 40.5t43 24v-213h-83zM228 502v0v98q0 27 10.5 50.5t29 40.5t42.5 24v-213h-82z" />
    <glyph glyph-name="quotedblright" unicode="&#x201d;" horiz-adv-x="363" 
d="M54 508v0v213h83v-98q0 -27 -10.5 -50.5t-29.5 -40.5t-43 -24zM235 508v0v213h82v-98q0 -27 -10.5 -50.5t-29 -40.5t-42.5 -24z" />
    <glyph glyph-name="bullet" unicode="&#x2022;" horiz-adv-x="371" 
d="M172 325q-28 0 -28 28v21q0 29 28 29h25q29 0 29 -29v-21q0 -28 -29 -28h-25v0z" />
    <glyph glyph-name="ellipsis" unicode="&#x2026;" horiz-adv-x="574" 
d="M54 0v0v82h83v-82h-83zM244 0v0v82h82v-82h-82zM432 0v0v82h82v-82h-82z" />
    <glyph glyph-name="Euro" unicode="&#x20ac;" horiz-adv-x="799" 
d="M262 0q-34 0 -61.5 16.5t-44 44t-16.5 60.5v109h-105v82h105v103h-105v83h105v101q0 34 16.5 61.5t44 44t61.5 16.5h499v-83h-499q-16 0 -27.5 -11.5t-11.5 -27.5v-101h424v-83h-424v-103h424v-82h-424v-109q0 -16 11.5 -27.5t27.5 -11.5h499v-82h-499v0z" />
    <glyph glyph-name="minus" unicode="&#x2212;" horiz-adv-x="517" 
d="M59 255v0v82h390v-82h-390z" />
    <glyph glyph-name="uniE002" unicode="&#xe002;" horiz-adv-x="771" 
d="M50 0v0v1l543 637h-547v82h723v-2l-611 -718h-108z" />
    <glyph glyph-name="uniE003" unicode="&#xe003;" horiz-adv-x="784" 
d="M658 0v264q0 10 -5.5 19t-14.5 14.5t-19 5.5h-485q-34 0 -61.5 16.5t-44 44t-16.5 60.5v173q0 34 16.5 61.5t44 44t61.5 16.5h485q33 0 60.5 -16.5t44 -44t16.5 -61.5v-597h-82zM134 385h524v212q0 16 -11.5 27.5t-27.5 11.5h-485q-16 0 -27.5 -11.5t-11.5 -27.5v-173
q0 -16 11.5 -27.5t27.5 -11.5z" />
    <glyph glyph-name="uniE005" unicode="&#xe005;" horiz-adv-x="815" 
d="M169 0q-43 0 -76 28t-43 67l-1 116l644 327v100h-522q-16 0 -27.5 -11.5t-11.5 -27.5v-42h-83v42q0 34 16.5 61.5t44 44t61.5 16.5h485q27 0 51.5 -14.5t42.5 -38t25 -49.5v-131l-643 -328v-78h643v-82h-606v0z" />
    <glyph glyph-name="uniE006" unicode="&#xe006;" horiz-adv-x="667" 
d="M204 151v93q0 34 16.5 61.5t44 43.5t61.5 16h200q16 0 27.5 11.5t11.5 27.5v194q0 16 -11.5 27.5t-27.5 11.5h-417v-114h-82v96q7 26 24.5 49t42 37.5t52.5 14.5h380q33 0 60.5 -16.5t44 -44t16.5 -61.5v-194q0 -33 -16.5 -60.5t-44 -44t-60.5 -16.5h-200
q-16 0 -27.5 -11.5t-11.5 -27.5v-93h-83zM204 0v82h83v-82h-83z" />
    <glyph glyph-name="uniE007" unicode="&#xe007;" horiz-adv-x="723" 
d="M511 0v0v186h-502v93l377 442h91v-31l-382 -422h416v157h82v-157h112v-82h-112v-186h-82z" />
    <glyph glyph-name="uniE008" unicode="&#xe008;" horiz-adv-x="1168" 
d="M612 0v0l-612 719v1h108l533 -627v349l-240 277v1h106l534 -627v627h82v-720h-111l-288 343v-343h-112z" />
    <glyph glyph-name="uniE009" unicode="&#xe009;" horiz-adv-x="1171" 
d="M49 0v0v720h82v-627l534 627h105v-1l-239 -277v-349l534 627h106v-1l-610 -719h-112v343l-288 -343h-112z" />
    <glyph glyph-name="uniE00A" unicode="&#xe00a;" horiz-adv-x="774" 
d="M54 0v0v721h83v-628l533 627h107v-1l-611 -719h-112z" />
    <glyph glyph-name="uniE00B" unicode="&#xe00b;" horiz-adv-x="774" 
d="M4 0v0v1l612 720h112v-721h-83v202h-364l-170 -202h-107zM351 285v0h294v344z" />
    <glyph glyph-name="uniE00C" unicode="&#xe00c;" horiz-adv-x="774" 
d="M54 0v0v721h112l612 -720v-1h-108l-171 202h-362v-202h-83zM137 285v0h295l-295 344v-344z" />
    <glyph glyph-name="A.alt" horiz-adv-x="774" 
d="M4 0v0v1l612 720h112v-721h-83v202h-364l-170 -202h-107zM351 285v0h294v344z" />
    <glyph glyph-name="C.alt" horiz-adv-x="822" 
d="M172 0q-33 0 -60.5 16t-43.5 43.5t-16 60.5v480q0 33 16 60.5t43.5 43.5t60.5 16h480q27 0 51 -14.5t42 -37.5t25 -48l3 -94h-81v113h-520q-16 0 -27.5 -11.5t-11.5 -27.5v-480q0 -16 11.5 -27.5t27.5 -11.5h520v113h78v-94q-7 -25 -25 -48t-42 -37.5t-51 -14.5h-480v0z
" />
    <glyph glyph-name="I.alt" horiz-adv-x="818" 
d="M49 0v0v81h319v558h-319v81h720v-81h-319v-558h319v-81h-720z" />
    <glyph glyph-name="J.alt" horiz-adv-x="645" 
d="M3 0v0v81h465q16 0 27 11.5t11 27.5v600h82v-600q0 -33 -16.5 -60.5t-43.5 -43.5t-60 -16h-465z" />
    <glyph glyph-name="K.alt" horiz-adv-x="829" 
d="M54 0v0v720h81v-284q0 -16 11.5 -27t27.5 -11h481q16 0 27.5 11t11.5 27v284h81v-263q0 -42 -23 -66t-76 -34q52 -10 75 -34.5t23 -65.5v-257h-81v278q0 15 -11.5 26.5t-27.5 11.5h-480q-16 0 -27.5 -11.5t-11.5 -26.5v-278h-81z" />
    <glyph glyph-name="M.alt" horiz-adv-x="1155" 
d="M54 0v0v720h943q33 0 60 -16t43.5 -43.5t16.5 -60.5v-600h-82v600q0 16 -11 27.5t-27 11.5h-383v-639h-82v600q0 16 -11 27.5t-27 11.5h-358v-639h-82z" />
    <glyph glyph-name="N.alt" horiz-adv-x="827" 
d="M54 0v0v720h600q33 0 60.5 -16t43.5 -43.5t16 -60.5v-600h-81v600q0 16 -11.5 27.5t-27.5 11.5h-519v-639h-81z" />
    <glyph glyph-name="O.alt" horiz-adv-x="824" 
d="M371 319v0v82h82v-82h-82zM174 0q-33 0 -60.5 16t-43.5 43.5t-16 60.5v480q0 33 16 60.5t43.5 43.5t60.5 16h480q33 0 60.5 -16t43.5 -43.5t16 -60.5v-480q0 -33 -16 -60.5t-43.5 -43.5t-60.5 -16h-480zM174 81h480q16 0 27.5 11.5t11.5 27.5v480q0 16 -11.5 27.5
t-27.5 11.5h-480q-16 0 -27.5 -11.5t-11.5 -27.5v-480q0 -16 11.5 -27.5t27.5 -11.5z" />
    <glyph glyph-name="Q.alt" horiz-adv-x="868" 
d="M373 -113v129h82v-129h-82zM174 0q-33 0 -60.5 16t-43.5 43.5t-16 60.5v480q0 33 16 60.5t43.5 43.5t60.5 16h480q33 0 60.5 -16t43.5 -43.5t16 -60.5v-480q0 -33 -16 -60.5t-43.5 -43.5t-60.5 -16h-480zM174 81h480q16 0 27.5 11.5t11.5 27.5v480q0 16 -11.5 27.5
t-27.5 11.5h-480q-16 0 -27.5 -11.5t-11.5 -27.5v-480q0 -16 11.5 -27.5t27.5 -11.5z" />
    <glyph glyph-name="R.alt" horiz-adv-x="826" 
d="M54 0v720l600 -1q33 0 60.5 -16.5t43.5 -43.5t16 -60v-211q0 -21 -12.5 -36t-30.5 -24.5t-36 -14t-28 -4.5q11 0 28.5 -4.5t35.5 -14t30.5 -24.5t12.5 -36v-230h-81v230q0 15 -11.5 26.5t-27.5 11.5h-480q-16 0 -27.5 -11.5t-11.5 -26.5v-230h-81zM174 350h480
q16 0 27.5 11t11.5 27v211q0 16 -11.5 27.5t-27.5 11.5h-480q-16 0 -27.5 -11.5t-11.5 -27.5v-211q0 -16 11.5 -27t27.5 -11z" />
    <glyph glyph-name="S.alt" horiz-adv-x="812" 
d="M46 0v81h600q16 0 27 11.5t11 27.5v161q0 16 -11 27t-27 11h-480q-33 0 -60.5 16.5t-43.5 43.5t-16 60v161q0 33 16 60.5t43.5 43.5t60.5 16h600v-81h-600q-16 0 -27.5 -11.5t-11.5 -27.5v-161q0 -16 11.5 -27t27.5 -11h480q33 0 60.5 -16.5t43.5 -43.5t16 -60v-161
q0 -33 -16 -60.5t-43.5 -43.5t-60.5 -16h-600z" />
    <glyph glyph-name="V.alt" horiz-adv-x="774" 
d="M54 0v0v721h83v-628l533 627h107v-1l-611 -719h-112z" />
    <glyph glyph-name="W.alt" horiz-adv-x="1171" 
d="M49 0v0v720h82v-627l534 627h105v-1l-239 -277v-349l534 627h106v-1l-610 -719h-112v343l-288 -343h-112z" />
    <glyph glyph-name="X.alt" horiz-adv-x="829" 
d="M55 0v257q0 25 19.5 48t51 37.5t67.5 14.5q-36 0 -68 14.5t-51.5 37.5t-19.5 48v263h81v-284q0 -16 11.5 -27t27.5 -11h481q16 0 27.5 11t11.5 27v284h81v-263q0 -25 -20 -48t-51.5 -37.5t-67.5 -14.5q36 0 67.5 -14.5t51 -37.5t19.5 -48v-257h-81v278q0 15 -11.5 26.5
t-27.5 11.5h-479q-16 0 -27.5 -11.5t-11.5 -26.5v-278h-81z" />
    <glyph glyph-name="Y.alt" horiz-adv-x="824" 
d="M51 0v0v81h600q16 0 27.5 11.5t11.5 27.5v161q0 16 -11.5 27t-27.5 11h-480q-33 0 -60.5 16.5t-43.5 43.5t-16 60v281h81v-281q0 -16 11.5 -27t27.5 -11h519v319h81v-600q0 -33 -16 -60.5t-43.5 -43.5t-60.5 -16h-600z" />
    <glyph glyph-name="Z.alt" horiz-adv-x="818" 
d="M169 0q-33 0 -60.5 16t-43.5 43.5t-16 60.5v161q0 33 16 60t43.5 43.5t60.5 16.5h480q16 0 27 11t11 27v161q0 16 -11 27.5t-27 11.5h-600v81h600q33 0 60.5 -16t43.5 -43.5t16 -60.5v-161q0 -33 -16 -60t-43.5 -43.5t-60.5 -16.5h-480q-16 0 -27.5 -11t-11.5 -27v-161
q0 -16 11.5 -27.5t27.5 -11.5h600v-81h-600z" />
    <glyph glyph-name="A.alt2" horiz-adv-x="774" 
d="M54 0v0v721h112l612 -720v-1h-108l-171 202h-362v-202h-83zM137 285v0h295l-295 344v-344z" />
    <glyph glyph-name="V.alt2" horiz-adv-x="774" 
d="M605 0v0l-605 719v1h107l528 -628v628h81v-720h-111z" />
    <glyph glyph-name="W.alt2" horiz-adv-x="1168" 
d="M612 0v0l-612 719v1h108l533 -627v349l-240 277v1h106l534 -627v627h82v-720h-111l-288 343v-343h-112z" />
    <glyph glyph-name="V.alt3" horiz-adv-x="827" 
d="M173 0q-33 0 -60.5 16t-43.5 43.5t-16 60.5v600h81v-600q0 -16 11.5 -27.5t27.5 -11.5h519v639h81v-720h-600v0z" />
    <glyph glyph-name="W.alt4" horiz-adv-x="1155" 
d="M173 0q-33 0 -60 16t-43.5 43.5t-16.5 60.5v600h82v-600q0 -16 11.5 -27.5t26.5 -11.5h383v639h82v-600q0 -16 11 -27.5t27 -11.5h358v639h82v-720h-943v0z" />
    <glyph glyph-name="a.alt" horiz-adv-x="693" 
d="M172 0q-33 0 -60.5 16.5t-44 44t-16.5 60.5v338q0 33 16.5 60.5t44 44t60.5 16.5h348q34 0 61.5 -16.5t44 -44t16.5 -60.5v-459h-470v0zM172 82h387v377q0 16 -11.5 27.5t-27.5 11.5h-348q-16 0 -27.5 -11.5t-11.5 -27.5v-338q0 -16 11.5 -27.5t27.5 -11.5z" />
    <glyph glyph-name="k.alt" horiz-adv-x="669" 
d="M54 0v0v770h82v-439h388q16 0 27.5 11.5t11.5 27.5v210h82v-210q0 -19 -8 -40t-21 -40q13 -19 21 -40t8 -40v-210h-82v210q0 16 -11.5 27.5t-27.5 11.5h-388v-249h-82z" />
    <glyph glyph-name="v.alt" horiz-adv-x="697" 
d="M174 0q-33 0 -60.5 16.5t-44 44t-16.5 60.5v459h82v-459q0 -16 11.5 -27.5t27.5 -11.5h388v498h82v-580h-470v0z" />
    <glyph glyph-name="w.alt" horiz-adv-x="978" 
d="M175 0q-34 0 -61.5 16.5t-44 44t-16.5 60.5v459h82v-459q0 -16 12 -27.5t28 -11.5h241q16 0 27.5 11.5t11.5 27.5v459h82v-459q0 -16 11.5 -27.5t27.5 -11.5h243q16 0 27.5 11.5t11.5 27.5v459h82v-580h-765v0z" />
    <glyph glyph-name="x.alt" horiz-adv-x="698" 
d="M54 0v0v210q0 19 8 40t21 40q-13 19 -21 40t-8 40v210h82v-210q0 -16 12 -27.5t28 -11.5h348q16 0 27.5 11.5t11.5 27.5v210h82v-210q0 -19 -8 -40t-21 -40q13 -19 21 -40t8 -40v-210h-82v210q0 16 -11.5 27.5t-27.5 11.5h-348q-16 0 -28 -11.5t-12 -27.5v-210h-82z" />
    <glyph glyph-name="z.alt" 
d="M172 0q-33 0 -60.5 16.5t-44 44t-16.5 60.5v89q0 33 16.5 60.5t44 44t60.5 16.5h348q16 0 27.5 11.5t11.5 27.5v89q0 16 -11.5 27.5t-27.5 11.5h-469v82h469q34 0 61.5 -16.5t44 -44t16.5 -60.5v-89q0 -33 -16.5 -60.5t-44 -44t-61.5 -16.5h-348q-16 0 -27.5 -11.5
t-11.5 -27.5v-89q0 -16 11.5 -27.5t27.5 -11.5h470v-82h-470v0z" />
    <glyph glyph-name="a.sc" horiz-adv-x="725" 
d="M53 0v0v459q0 33 16.5 60.5t44 44t60.5 16.5h380q33 0 60.5 -16.5t44 -44t16.5 -60.5v-459h-82v160h-458v-160h-82zM135 243v0h458v216q0 16 -11.5 27.5t-27.5 11.5h-380q-16 0 -27.5 -11.5t-11.5 -27.5v-216z" />
    <glyph glyph-name="b.sc" horiz-adv-x="700" 
d="M54 0v0v581h448q34 0 61.5 -16.5t44 -44t16.5 -60.5v-93q0 -14 -4 -27.5t-9 -25.5q22 -34 33 -58t11 -49v-86q0 -33 -16.5 -60.5t-44 -44t-60.5 -16.5h-480zM175 82h359q16 0 27.5 11.5t11.5 27.5v86q0 16 -11.5 27.5t-27.5 11.5h-359q-16 0 -27.5 -11.5t-11.5 -27.5v-86
q0 -16 11.5 -27.5t27.5 -11.5zM175 328h327q16 0 27.5 11.5t11.5 27.5v93q0 16 -11.5 27.5t-27.5 11.5h-327q-16 0 -27.5 -11.5t-11.5 -27.5v-93q0 -16 11.5 -27.5t27.5 -11.5z" />
    <glyph glyph-name="c.sc" horiz-adv-x="693" 
d="M172 0q-33 0 -60.5 16.5t-44 44t-16.5 60.5v339q0 33 16.5 60.5t44 44t60.5 16.5h468v-82h-468q-16 0 -27.5 -11.5t-11.5 -27.5v-339q0 -16 11.5 -27.5t27.5 -11.5h468v-82h-468v0z" />
    <glyph glyph-name="d.sc" horiz-adv-x="705" 
d="M54 0v0v581h480q33 0 60.5 -16.5t44 -44t16.5 -60.5v-339q0 -33 -16.5 -60.5t-44 -44t-60.5 -16.5h-480zM175 82h359q16 0 27.5 11.5t11.5 27.5v339q0 16 -11.5 27.5t-27.5 11.5h-359q-16 0 -27.5 -11.5t-11.5 -27.5v-339q0 -16 11.5 -27.5t27.5 -11.5z" />
    <glyph glyph-name="e.sc" horiz-adv-x="638" 
d="M54 0v0v581h527v-82h-445v-168h331v-82h-331v-167h445v-82h-527z" />
    <glyph glyph-name="f.sc" horiz-adv-x="591" 
d="M54 0v0v581h527v-82h-445v-168h331v-82h-331v-249h-82z" />
    <glyph glyph-name="g.sc" horiz-adv-x="690" 
d="M172 0q-33 0 -60.5 16.5t-44 44t-16.5 60.5v339q0 33 16.5 60.5t44 44t60.5 16.5h348q34 0 61.5 -16.5t44 -44t16.5 -60.5v-14h-83v14q0 16 -11.5 27.5t-27.5 11.5h-348q-16 0 -27.5 -11.5t-11.5 -27.5v-339q0 -16 11.5 -27.5t27.5 -11.5h348q16 0 27.5 11.5t11.5 27.5
v96h-179v82h262v-178q0 -33 -16.5 -60.5t-44 -44t-61.5 -16.5h-348v0z" />
    <glyph glyph-name="h.sc" horiz-adv-x="715" 
d="M54 0v0v580h82v-249h444v249h82v-580h-82v249h-444v-249h-82z" />
    <glyph glyph-name="i.sc" horiz-adv-x="214" 
d="M54 0v0v580h82v-580h-82z" />
    <glyph glyph-name="j.sc" horiz-adv-x="657" 
d="M126 0q-33 0 -60.5 16.5t-44 44t-16.5 60.5v48h82v-48q0 -16 11.5 -27.5t27.5 -11.5h359q16 0 27.5 11.5t11.5 27.5v459h82v-459q0 -33 -16.5 -60.5t-44 -44t-60.5 -16.5h-359v0z" />
    <glyph glyph-name="k.sc" horiz-adv-x="682" 
d="M54 0v0v580h82v-249h160l228 249h108v-1l-263 -289l262 -289v-1h-107l-228 249h-160v-249h-82z" />
    <glyph glyph-name="l.sc" horiz-adv-x="659" 
d="M54 0v0v580h82v-498h519v-82h-601z" />
    <glyph glyph-name="m.sc" horiz-adv-x="824" 
d="M54 0v0v581h110l251 -358l249 358h113v-581h-82v505l-280 -398l-279 398v-505h-82z" />
    <glyph glyph-name="n.sc" horiz-adv-x="709" 
d="M54 0v0v580h111l408 -488v488h82v-580h-111l-408 489v-489h-82z" />
    <glyph glyph-name="o.sc" 
d="M172 0q-33 0 -60.5 16.5t-44 44t-16.5 60.5v338q0 33 16.5 60.5t44 44t60.5 16.5h348q34 0 61.5 -16.5t44 -44t16.5 -60.5v-338q0 -33 -16.5 -60.5t-44 -44t-61.5 -16.5h-348v0zM172 82h348q16 0 27.5 11.5t11.5 27.5v338q0 16 -11.5 27.5t-27.5 11.5h-348
q-16 0 -27.5 -11.5t-11.5 -27.5v-338q0 -16 11.5 -27.5t27.5 -11.5z" />
    <glyph glyph-name="p.sc" horiz-adv-x="660" 
d="M54 0v0v580h470q33 0 60.5 -16.5t44 -44t16.5 -60.5v-130q0 -33 -16.5 -60.5t-44 -44t-60.5 -16.5h-388v-208h-82zM176 290h348q16 0 27.5 11.5t11.5 27.5v130q0 16 -11.5 27.5t-27.5 11.5h-348q-16 0 -28 -11.5t-12 -27.5v-130q0 -16 12 -27.5t28 -11.5z" />
    <glyph glyph-name="q.sc" horiz-adv-x="770" 
d="M498 0l107 82h132v-82h-239zM172 0q-33 0 -60.5 16.5t-44 44t-16.5 60.5v338q0 33 16.5 60.5t44 44t60.5 16.5h348q34 0 61.5 -16.5t44 -44t16.5 -60.5v-338q0 -33 -16.5 -60.5t-44 -44t-61.5 -16.5h-348v0zM172 82h348q16 0 27.5 11.5t11.5 27.5v338q0 16 -11.5 27.5
t-27.5 11.5h-348q-16 0 -27.5 -11.5t-11.5 -27.5v-338q0 -16 11.5 -27.5t27.5 -11.5z" />
    <glyph glyph-name="r.sc" horiz-adv-x="700" 
d="M54 0v0v580h469q34 0 61.5 -16.5t43.5 -44t16 -60.5v-130q0 -33 -16 -60.5t-43.5 -44t-61.5 -16.5h-107l231 -207v-1h-105l-228 208h-178v-208h-82zM175 290h348q16 0 27.5 11.5t11.5 27.5v130q0 16 -11.5 27.5t-27.5 11.5h-348q-16 0 -27.5 -11.5t-11.5 -27.5v-130
q0 -16 11.5 -27.5t27.5 -11.5z" />
    <glyph glyph-name="s.sc" horiz-adv-x="687" 
d="M170 0q-33 0 -60.5 16.5t-44 44t-16.5 60.5v18h82v-18q0 -16 11.5 -27.5t27.5 -11.5h348q16 0 27.5 11.5t11.5 27.5v89q0 16 -11.5 27.5t-27.5 11.5h-348q-33 0 -60.5 16.5t-44 44t-16.5 60.5v89q0 33 16.5 60.5t44 44t60.5 16.5h348q34 0 61.5 -16.5t44 -44t16.5 -60.5
v-18h-83v18q0 16 -11.5 27.5t-27.5 11.5h-348q-16 0 -27.5 -11.5t-11.5 -27.5v-89q0 -16 11.5 -27.5t27.5 -11.5h348q34 0 61.5 -16.5t44 -44t16.5 -60.5v-89q0 -33 -16.5 -60.5t-44 -44t-61.5 -16.5h-348v0z" />
    <glyph glyph-name="t.sc" horiz-adv-x="644" 
d="M282 0v0v498h-260v82h601v-82h-259v-498h-82z" />
    <glyph glyph-name="u.sc" horiz-adv-x="695" 
d="M174 0q-33 0 -60.5 16.5t-44 44t-16.5 60.5v459h82v-459q0 -16 11.5 -27.5t27.5 -11.5h348q16 0 28 11.5t12 27.5v459h82v-459q0 -33 -16.5 -60.5t-44 -44t-61.5 -16.5h-348v0z" />
    <glyph glyph-name="v.sc" horiz-adv-x="801" 
d="M348 0v0l-327 580h97l277 -499l277 499h96l-326 -580h-94z" />
    <glyph glyph-name="w.sc" horiz-adv-x="1078" 
d="M266 0v0l-232 580h88l179 -431l192 431h100l203 -430l168 430h88l-221 -580h-72l-216 467l-205 -467h-72z" />
    <glyph glyph-name="x.sc" 
d="M46 0v0v1l242 295l-242 283v1h108l188 -219l188 219h108v-1l-242 -283l243 -295v-1h-108l-189 233l-188 -233h-108z" />
    <glyph glyph-name="y.sc" horiz-adv-x="688" 
d="M290 0v0v200l-272 380h96l217 -283l217 283h97l-272 -380v-200h-83z" />
    <glyph glyph-name="z.sc" horiz-adv-x="698" 
d="M54 0v0v112l501 386h-501v82h591v-112l-501 -386h501v-82h-591z" />
    <glyph glyph-name="two.alt" horiz-adv-x="815" 
d="M169 0q-43 0 -76 28t-43 67l-1 116l644 327v100h-522q-16 0 -27.5 -11.5t-11.5 -27.5v-42h-83v42q0 34 16.5 61.5t44 44t61.5 16.5h485q27 0 51.5 -14.5t42.5 -38t25 -49.5v-131l-643 -328v-78h643v-82h-606v0z" />
    <glyph glyph-name="four.alt" horiz-adv-x="723" 
d="M511 0v0v186h-502v93l377 442h91v-31l-382 -422h416v157h82v-157h112v-82h-112v-186h-82z" />
    <glyph glyph-name="seven.alt" horiz-adv-x="771" 
d="M50 0v0v1l543 637h-547v82h723v-2l-611 -718h-108z" />
    <glyph glyph-name="nine.alt" horiz-adv-x="784" 
d="M658 0v0v264q0 16 -11.5 27.5t-27.5 11.5h-485q-34 0 -61.5 16.5t-44 44t-16.5 60.5v173q0 34 16.5 61.5t44 44t61.5 16.5h485q33 0 60.5 -16.5t44 -44t16.5 -61.5v-597h-82zM134 385v0h524v212q0 16 -11.5 27.5t-27.5 11.5h-485q-16 0 -27.5 -11.5t-11.5 -27.5v-173
q0 -16 11.5 -27.5t27.5 -11.5z" />
    <glyph glyph-name="question.alt" horiz-adv-x="667" 
d="M204 151v0v93q0 34 16.5 61.5t44 43.5t61.5 16h200q16 0 27.5 11.5t11.5 27.5v194q0 16 -11.5 27.5t-27.5 11.5h-417v-114h-82v96q7 26 24.5 49t42 37.5t52.5 14.5h380q33 0 60.5 -16.5t44 -44t16.5 -61.5v-194q0 -33 -16.5 -60.5t-44 -44t-60.5 -16.5h-200
q-16 0 -27.5 -11.5t-11.5 -27.5v-93h-83zM204 0v0v82h83v-82h-83z" />
    </font>
</defs>
</svg>
